  0
SECTION
  2
HEADER
  9
$ACADVER
  1
AC1018
  9
$ACADMAINTVER
 70
     0
  9
$DWGCODEPAGE
  3
ANSI_1252
  9
$LASTSAVEDBY
  1
resptec
  9
$INSBASE
 10
0.0
 20
0.0
 30
0.0
  9
$EXTMIN
 10
-1621.466675934
 20
-2.750898844
 30
0.0
  9
$EXTMAX
 10
-439.207233887
 20
912.84387207
 30
0.0
  9
$LIMMIN
 10
0.0
 20
0.0
  9
$LIMMAX
 10
0.0
 20
0.0
  9
$ORTHOMODE
 70
     0
  9
$REGENMODE
 70
     1
  9
$FILLMODE
 70
     1
  9
$QTEXTMODE
 70
     0
  9
$MIRRTEXT
 70
     1
  9
$LTSCALE
 40
1.0
  9
$ATTMODE
 70
     1
  9
$TEXTSIZE
 40
0.2
  9
$TRACEWID
 40
0.05
  9
$TEXTSTYLE
  7
Standard
  9
$CLAYER
  8
1
  9
$CELTYPE
  6
Continuous
  9
$CECOLOR
 62
   256
  9
$CELTSCALE
 40
1.0
  9
$DISPSILH
 70
     0
  9
$DIMSCALE
 40
1.0
  9
$DIMASZ
 40
3.5
  9
$DIMEXO
 40
4.0
  9
$DIMDLI
 40
0.38
  9
$DIMRND
 40
0.0
  9
$DIMDLE
 40
0.0
  9
$DIMEXE
 40
4.0
  9
$DIMTP
 40
0.0
  9
$DIMTM
 40
0.0
  9
$DIMTXT
 40
3.5
  9
$DIMCEN
 40
0.09
  9
$DIMTSZ
 40
0.0
  9
$DIMTOL
 70
     0
  9
$DIMLIM
 70
     0
  9
$DIMTIH
 70
     0
  9
$DIMTOH
 70
     0
  9
$DIMSE1
 70
     0
  9
$DIMSE2
 70
     0
  9
$DIMTAD
 70
     1
  9
$DIMZIN
 70
     0
  9
$DIMBLK
  1

  9
$DIMASO
 70
     1
  9
$DIMSHO
 70
     1
  9
$DIMPOST
  1

  9
$DIMAPOST
  1

  9
$DIMALT
 70
     0
  9
$DIMALTD
 70
     2
  9
$DIMALTF
 40
25.4
  9
$DIMLFAC
 40
1.0
  9
$DIMTOFL
 70
     1
  9
$DIMTVP
 40
0.0
  9
$DIMTIX
 70
     0
  9
$DIMSOXD
 70
     0
  9
$DIMSAH
 70
     0
  9
$DIMBLK1
  1

  9
$DIMBLK2
  1

  9
$DIMSTYLE
  2
Standard
  9
$DIMCLRD
 70
     7
  9
$DIMCLRE
 70
     7
  9
$DIMCLRT
 70
    50
  9
$DIMTFAC
 40
1.0
  9
$DIMGAP
 40
0.09
  9
$DIMJUST
 70
     0
  9
$DIMSD1
 70
     0
  9
$DIMSD2
 70
     0
  9
$DIMTOLJ
 70
     1
  9
$DIMTZIN
 70
     0
  9
$DIMALTZ
 70
     0
  9
$DIMALTTZ
 70
     0
  9
$DIMUPT
 70
     0
  9
$DIMDEC
 70
     2
  9
$DIMTDEC
 70
     2
  9
$DIMALTU
 70
     2
  9
$DIMALTTD
 70
     2
  9
$DIMTXSTY
  7
Standard
  9
$DIMAUNIT
 70
     0
  9
$DIMADEC
 70
     0
  9
$DIMALTRND
 40
0.0
  9
$DIMAZIN
 70
     0
  9
$DIMDSEP
 70
    46
  9
$DIMATFIT
 70
     3
  9
$DIMFRAC
 70
     0
  9
$DIMLDRBLK
  1

  9
$DIMLUNIT
 70
     2
  9
$DIMLWD
 70
    -2
  9
$DIMLWE
 70
    -2
  9
$DIMTMOVE
 70
     2
  9
$LUNITS
 70
     2
  9
$LUPREC
 70
     2
  9
$SKETCHINC
 40
0.1
  9
$FILLETRAD
 40
0.0
  9
$AUNITS
 70
     0
  9
$AUPREC
 70
     2
  9
$MENU
  1
.
  9
$ELEVATION
 40
0.0
  9
$PELEVATION
 40
0.0
  9
$THICKNESS
 40
0.0
  9
$LIMCHECK
 70
     0
  9
$CHAMFERA
 40
0.0
  9
$CHAMFERB
 40
0.0
  9
$CHAMFERC
 40
0.0
  9
$CHAMFERD
 40
0.0
  9
$SKPOLY
 70
     0
  9
$TDCREATE
 40
2453353.800459155
  9
$TDUCREATE
 40
2453353.717125822
  9
$TDUPDATE
 40
2447892.999999977
  9
$TDUUPDATE
 40
2447892.916666644
  9
$TDINDWG
 40
0.0429514005
  9
$TDUSRTIMER
 40
0.0429398264
  9
$USRTIMER
 70
     1
  9
$ANGBASE
 50
0.0
  9
$ANGDIR
 70
     0
  9
$PDMODE
 70
     2
  9
$PDSIZE
 40
-1.0
  9
$PLINEWID
 40
0.0
  9
$SPLFRAME
 70
     0
  9
$SPLINETYPE
 70
     6
  9
$SPLINESEGS
 70
     8
  9
$HANDSEED
  5
7F4
  9
$SURFTAB1
 70
     6
  9
$SURFTAB2
 70
     6
  9
$SURFTYPE
 70
     6
  9
$SURFU
 70
     6
  9
$SURFV
 70
     6
  9
$UCSBASE
  2

  9
$UCSNAME
  2

  9
$UCSORG
 10
0.0
 20
0.0
 30
0.0
  9
$UCSXDIR
 10
1.0
 20
0.0
 30
0.0
  9
$UCSYDIR
 10
0.0
 20
1.0
 30
0.0
  9
$UCSORTHOREF
  2

  9
$UCSORTHOVIEW
 70
     0
  9
$UCSORGTOP
 10
0.0
 20
0.0
 30
0.0
  9
$UCSORGBOTTOM
 10
0.0
 20
0.0
 30
0.0
  9
$UCSORGLEFT
 10
0.0
 20
0.0
 30
0.0
  9
$UCSORGRIGHT
 10
0.0
 20
0.0
 30
0.0
  9
$UCSORGFRONT
 10
0.0
 20
0.0
 30
0.0
  9
$UCSORGBACK
 10
0.0
 20
0.0
 30
0.0
  9
$PUCSBASE
  2

  9
$PUCSNAME
  2

  9
$PUCSORG
 10
0.0
 20
0.0
 30
0.0
  9
$PUCSXDIR
 10
1.0
 20
0.0
 30
0.0
  9
$PUCSYDIR
 10
0.0
 20
1.0
 30
0.0
  9
$PUCSORTHOREF
  2

  9
$PUCSORTHOVIEW
 70
     0
  9
$PUCSORGTOP
 10
0.0
 20
0.0
 30
0.0
  9
$PUCSORGBOTTOM
 10
0.0
 20
0.0
 30
0.0
  9
$PUCSORGLEFT
 10
0.0
 20
0.0
 30
0.0
  9
$PUCSORGRIGHT
 10
0.0
 20
0.0
 30
0.0
  9
$PUCSORGFRONT
 10
0.0
 20
0.0
 30
0.0
  9
$PUCSORGBACK
 10
0.0
 20
0.0
 30
0.0
  9
$USERI1
 70
     0
  9
$USERI2
 70
     0
  9
$USERI3
 70
     0
  9
$USERI4
 70
     0
  9
$USERI5
 70
     0
  9
$USERR1
 40
0.0
  9
$USERR2
 40
0.0
  9
$USERR3
 40
0.0
  9
$USERR4
 40
0.0
  9
$USERR5
 40
0.0
  9
$WORLDVIEW
 70
     1
  9
$SHADEDGE
 70
     3
  9
$SHADEDIF
 70
    70
  9
$TILEMODE
 70
     1
  9
$MAXACTVP
 70
    16
  9
$PINSBASE
 10
0.0
 20
0.0
 30
0.0
  9
$PLIMCHECK
 70
     0
  9
$PEXTMIN
 10
0.0
 20
0.0
 30
0.0
  9
$PEXTMAX
 10
0.0
 20
0.0
 30
0.0
  9
$PLIMMIN
 10
0.0
 20
0.0
  9
$PLIMMAX
 10
0.0
 20
0.0
  9
$UNITMODE
 70
     0
  9
$VISRETAIN
 70
     0
  9
$PLINEGEN
 70
     1
  9
$PSLTSCALE
 70
     0
  9
$TREEDEPTH
 70
  3020
  9
$CMLSTYLE
  2
Standard
  9
$CMLJUST
 70
     0
  9
$CMLSCALE
 40
1.0
  9
$PROXYGRAPHICS
 70
     0
  9
$MEASUREMENT
 70
     1
  9
$CELWEIGHT
370
    -1
  9
$ENDCAPS
280
     0
  9
$JOINSTYLE
280
     0
  9
$LWDISPLAY
290
     0
  9
$INSUNITS
 70
     0
  9
$HYPERLINKBASE
  1

  9
$STYLESHEET
  1

  9
$XEDIT
290
     0
  9
$CEPSNTYPE
380
     0
  9
$PSTYLEMODE
290
     1
  9
$FINGERPRINTGUID
  2
{EE0A2271-71E3-4226-BA1A-8F2053C723AB}
  9
$VERSIONGUID
  2
{FAEB1C32-E019-11D5-929B-00C0DF256EC4}
  9
$EXTNAMES
290
     1
  9
$PSVPSCALE
 40
0.0
  9
$OLESTARTUP
290
     0
  9
$SORTENTS
280
   127
  9
$INDEXCTL
280
     0
  9
$HIDETEXT
280
     1
  9
$XCLIPFRAME
290
     0
  9
$HALOGAP
280
     0
  9
$OBSCOLOR
 70
   257
  9
$OBSLTYPE
280
     0
  9
$INTERSECTIONDISPLAY
280
     0
  9
$INTERSECTIONCOLOR
 70
   257
  9
$DIMASSOC
280
     2
  9
$PROJECTNAME
  1

  0
ENDSEC
  0
SECTION
  2
CLASSES
  0
CLASS
  1
ACDBDICTIONARYWDFLT
  2
AcDbDictionaryWithDefault
  3
ObjectDBX Classes
 90
        0
 91
        4
280
     0
281
     0
  0
CLASS
  1
ACDBPLACEHOLDER
  2
AcDbPlaceHolder
  3
ObjectDBX Classes
 90
        0
 91
        1
280
     0
281
     0
  0
CLASS
  1
LAYOUT
  2
AcDbLayout
  3
ObjectDBX Classes
 90
        0
 91
        1
280
     0
281
     0
  0
CLASS
  1
DICTIONARYVAR
  2
AcDbDictionaryVar
  3
ObjectDBX Classes
 90
        0
 91
        4
280
     0
281
     0
  0
CLASS
  1
TABLESTYLE
  2
AcDbTableStyle
  3
ObjectDBX Classes
 90
     4095
 91
        4
280
     0
281
     0
  0
CLASS
  1
SCALE
  2
AcDbScale
  3
ObjectDBX Classes
 90
     1153
 91
        4
280
     0
281
     0
  0
ENDSEC
  0
SECTION
  2
TABLES
  0
TABLE
  2
VPORT
  5
8
330
0
100
AcDbSymbolTable
 70
     2
  0
VPORT
  5
97
330
8
100
AcDbSymbolTableRecord
100
AcDbViewportTableRecord
  2
*ACTIVE
 70
     0
 10
0.0
 20
0.0
 11
1.0
 21
1.0
 12
-1030.3369549105
 22
455.046486613
 13
0.0
 23
0.0
 14
1.0
 24
1.0
 15
0.0
 25
0.0
 16
0.0
 26
0.0
 36
1.0
 17
0.0
 27
0.0
 37
0.0
 40
933.90666633228
 41
0.688564
 42
50.0
 43
0.0
 44
0.0
 50
0.0
 51
0.0
 71
    16
 72
   100
 73
     1
 74
     1
 75
     0
 76
     0
 77
     0
 78
     0
281
     0
 65
     0
110
0.0
120
0.0
130
0.0
111
1.0
121
0.0
131
0.0
112
0.0
122
1.0
132
0.0
 79
     0
146
0.0
  0
ENDTAB
  0
TABLE
  2
LTYPE
  5
5
330
0
100
AcDbSymbolTable
 70
     4
  0
LTYPE
  5
14
330
5
100
AcDbSymbolTableRecord
100
AcDbLinetypeTableRecord
  2
ByBlock
 70
     0
  3

 72
    65
 73
     0
 40
0.0
  0
LTYPE
  5
15
330
5
100
AcDbSymbolTableRecord
100
AcDbLinetypeTableRecord
  2
ByLayer
 70
     0
  3

 72
    65
 73
     0
 40
0.0
  0
LTYPE
  5
16
330
5
100
AcDbSymbolTableRecord
100
AcDbLinetypeTableRecord
  2
Continuous
 70
     0
  3
Solid line
 72
    65
 73
     0
 40
0.0
  0
LTYPE
  5
78B
330
5
100
AcDbSymbolTableRecord
100
AcDbLinetypeTableRecord
  2
SOLID
 70
     0
  3
Solid line
 72
    65
 73
     0
 40
0.0
  0
LTYPE
  5
78C
330
5
100
AcDbSymbolTableRecord
100
AcDbLinetypeTableRecord
  2
CENTER
 70
     0
  3
Center ____ _ ____ _ ____ _ ____ _ ____ _ ____
 72
    65
 73
     4
 40
8.0
 49
4.5
 74
     4
 75
     0
340
0
 46
1.0
 50
0.0
 44
0.0
 45
0.0
 49
-1.5
 74
     4
 75
     0
340
0
 46
1.0
 50
0.0
 44
0.0
 45
0.0
 49
0.5
 74
     4
 75
     0
340
0
 46
1.0
 50
0.0
 44
0.0
 45
0.0
 49
-1.5
 74
     4
 75
     0
340
0
 46
1.0
 50
0.0
 44
0.0
 45
0.0
  0
LTYPE
  5
78D
330
5
100
AcDbSymbolTableRecord
100
AcDbLinetypeTableRecord
  2
L_DASH
 70
     0
  3
L_dash ____  ____  ____  ____  ____  ____
 72
    65
 73
     2
 40
8.0
 49
6.0
 74
     4
 75
     0
340
0
 46
1.0
 50
0.0
 44
0.0
 45
0.0
 49
-2.0
 74
     4
 75
     0
340
0
 46
1.0
 50
0.0
 44
0.0
 45
0.0
  0
ENDTAB
  0
TABLE
  2
LAYER
  5
2
330
0
100
AcDbSymbolTable
 70
    51
  0
LAYER
  5
10
330
2
100
AcDbSymbolTableRecord
100
AcDbLayerTableRecord
  2
0
 70
     0
 62
     7
  6
Continuous
370
    -3
390
F
  0
LAYER
  5
1D
330
2
100
AcDbSymbolTableRecord
100
AcDbLayerTableRecord
  2
1
 70
     0
 62
     7
  6
Continuous
370
    -3
390
F
  0
LAYER
  5
1E
330
2
100
AcDbSymbolTableRecord
100
AcDbLayerTableRecord
  2
2
 70
     0
 62
     7
  6
Continuous
370
    -3
390
F
  0
LAYER
  5
78E
330
2
100
AcDbSymbolTableRecord
100
AcDbLayerTableRecord
  2
3
 70
     0
 62
     7
  6
Continuous
370
    -3
390
F
  0
LAYER
  5
78F
330
2
100
AcDbSymbolTableRecord
100
AcDbLayerTableRecord
  2
4
 70
     0
 62
     7
  6
Continuous
370
    -3
390
F
  0
LAYER
  5
790
330
2
100
AcDbSymbolTableRecord
100
AcDbLayerTableRecord
  2
5
 70
     0
 62
     7
  6
Continuous
370
    -3
390
F
  0
LAYER
  5
791
330
2
100
AcDbSymbolTableRecord
100
AcDbLayerTableRecord
  2
6
 70
     0
 62
     7
  6
Continuous
370
    -3
390
F
  0
LAYER
  5
23
330
2
100
AcDbSymbolTableRecord
100
AcDbLayerTableRecord
  2
7
 70
     0
 62
     7
  6
Continuous
370
    -3
390
F
  0
LAYER
  5
24
330
2
100
AcDbSymbolTableRecord
100
AcDbLayerTableRecord
  2
8
 70
     0
 62
     7
  6
Continuous
370
    -3
390
F
  0
LAYER
  5
25
330
2
100
AcDbSymbolTableRecord
100
AcDbLayerTableRecord
  2
9
 70
     0
 62
     7
  6
Continuous
370
    -3
390
F
  0
LAYER
  5
26
330
2
100
AcDbSymbolTableRecord
100
AcDbLayerTableRecord
  2
10
 70
     0
 62
     7
  6
Continuous
370
    -3
390
F
  0
LAYER
  5
792
330
2
100
AcDbSymbolTableRecord
100
AcDbLayerTableRecord
  2
11
 70
     0
 62
     7
  6
Continuous
370
    -3
390
F
  0
LAYER
  5
28
330
2
100
AcDbSymbolTableRecord
100
AcDbLayerTableRecord
  2
12
 70
     0
 62
     7
  6
Continuous
370
    -3
390
F
  0
LAYER
  5
29
330
2
100
AcDbSymbolTableRecord
100
AcDbLayerTableRecord
  2
13
 70
     0
 62
     7
  6
Continuous
370
    -3
390
F
  0
LAYER
  5
2A
330
2
100
AcDbSymbolTableRecord
100
AcDbLayerTableRecord
  2
14
 70
     0
 62
     7
  6
Continuous
370
    -3
390
F
  0
LAYER
  5
2B
330
2
100
AcDbSymbolTableRecord
100
AcDbLayerTableRecord
  2
15
 70
     0
 62
     7
  6
Continuous
370
    -3
390
F
  0
LAYER
  5
2C
330
2
100
AcDbSymbolTableRecord
100
AcDbLayerTableRecord
  2
16
 70
     0
 62
     7
  6
Continuous
370
    -3
390
F
  0
LAYER
  5
2D
330
2
100
AcDbSymbolTableRecord
100
AcDbLayerTableRecord
  2
17
 70
     0
 62
     7
  6
Continuous
370
    -3
390
F
  0
LAYER
  5
2E
330
2
100
AcDbSymbolTableRecord
100
AcDbLayerTableRecord
  2
18
 70
     0
 62
     7
  6
Continuous
370
    -3
390
F
  0
LAYER
  5
2F
330
2
100
AcDbSymbolTableRecord
100
AcDbLayerTableRecord
  2
19
 70
     0
 62
     7
  6
Continuous
370
    -3
390
F
  0
LAYER
  5
30
330
2
100
AcDbSymbolTableRecord
100
AcDbLayerTableRecord
  2
20
 70
     0
 62
     7
  6
Continuous
370
    -3
390
F
  0
LAYER
  5
31
330
2
100
AcDbSymbolTableRecord
100
AcDbLayerTableRecord
  2
21
 70
     0
 62
     7
  6
Continuous
370
    -3
390
F
  0
LAYER
  5
32
330
2
100
AcDbSymbolTableRecord
100
AcDbLayerTableRecord
  2
22
 70
     0
 62
     7
  6
Continuous
370
    -3
390
F
  0
LAYER
  5
33
330
2
100
AcDbSymbolTableRecord
100
AcDbLayerTableRecord
  2
23
 70
     0
 62
     7
  6
Continuous
370
    -3
390
F
  0
LAYER
  5
34
330
2
100
AcDbSymbolTableRecord
100
AcDbLayerTableRecord
  2
24
 70
     0
 62
     7
  6
Continuous
370
    -3
390
F
  0
LAYER
  5
35
330
2
100
AcDbSymbolTableRecord
100
AcDbLayerTableRecord
  2
25
 70
     0
 62
     7
  6
Continuous
370
    -3
390
F
  0
LAYER
  5
36
330
2
100
AcDbSymbolTableRecord
100
AcDbLayerTableRecord
  2
26
 70
     0
 62
     7
  6
Continuous
370
    -3
390
F
  0
LAYER
  5
37
330
2
100
AcDbSymbolTableRecord
100
AcDbLayerTableRecord
  2
27
 70
     0
 62
     7
  6
Continuous
370
    -3
390
F
  0
LAYER
  5
38
330
2
100
AcDbSymbolTableRecord
100
AcDbLayerTableRecord
  2
28
 70
     0
 62
     7
  6
Continuous
370
    -3
390
F
  0
LAYER
  5
39
330
2
100
AcDbSymbolTableRecord
100
AcDbLayerTableRecord
  2
29
 70
     0
 62
     7
  6
Continuous
370
    -3
390
F
  0
LAYER
  5
3A
330
2
100
AcDbSymbolTableRecord
100
AcDbLayerTableRecord
  2
30
 70
     0
 62
     7
  6
Continuous
370
    -3
390
F
  0
LAYER
  5
3B
330
2
100
AcDbSymbolTableRecord
100
AcDbLayerTableRecord
  2
31
 70
     0
 62
     7
  6
Continuous
370
    -3
390
F
  0
LAYER
  5
3C
330
2
100
AcDbSymbolTableRecord
100
AcDbLayerTableRecord
  2
32
 70
     0
 62
     7
  6
Continuous
370
    -3
390
F
  0
LAYER
  5
3D
330
2
100
AcDbSymbolTableRecord
100
AcDbLayerTableRecord
  2
33
 70
     0
 62
     7
  6
Continuous
370
    -3
390
F
  0
LAYER
  5
3E
330
2
100
AcDbSymbolTableRecord
100
AcDbLayerTableRecord
  2
34
 70
     0
 62
     7
  6
Continuous
370
    -3
390
F
  0
LAYER
  5
3F
330
2
100
AcDbSymbolTableRecord
100
AcDbLayerTableRecord
  2
35
 70
     0
 62
     7
  6
Continuous
370
    -3
390
F
  0
LAYER
  5
40
330
2
100
AcDbSymbolTableRecord
100
AcDbLayerTableRecord
  2
36
 70
     0
 62
     7
  6
Continuous
370
    -3
390
F
  0
LAYER
  5
41
330
2
100
AcDbSymbolTableRecord
100
AcDbLayerTableRecord
  2
37
 70
     0
 62
     7
  6
Continuous
370
    -3
390
F
  0
LAYER
  5
42
330
2
100
AcDbSymbolTableRecord
100
AcDbLayerTableRecord
  2
38
 70
     0
 62
     7
  6
Continuous
370
    -3
390
F
  0
LAYER
  5
43
330
2
100
AcDbSymbolTableRecord
100
AcDbLayerTableRecord
  2
39
 70
     0
 62
     7
  6
Continuous
370
    -3
390
F
  0
LAYER
  5
44
330
2
100
AcDbSymbolTableRecord
100
AcDbLayerTableRecord
  2
40
 70
     0
 62
     7
  6
Continuous
370
    -3
390
F
  0
LAYER
  5
45
330
2
100
AcDbSymbolTableRecord
100
AcDbLayerTableRecord
  2
41
 70
     0
 62
     7
  6
Continuous
370
    -3
390
F
  0
LAYER
  5
46
330
2
100
AcDbSymbolTableRecord
100
AcDbLayerTableRecord
  2
42
 70
     0
 62
     7
  6
Continuous
370
    -3
390
F
  0
LAYER
  5
47
330
2
100
AcDbSymbolTableRecord
100
AcDbLayerTableRecord
  2
43
 70
     0
 62
     7
  6
Continuous
370
    -3
390
F
  0
LAYER
  5
48
330
2
100
AcDbSymbolTableRecord
100
AcDbLayerTableRecord
  2
44
 70
     0
 62
     7
  6
Continuous
370
    -3
390
F
  0
LAYER
  5
49
330
2
100
AcDbSymbolTableRecord
100
AcDbLayerTableRecord
  2
45
 70
     0
 62
     7
  6
Continuous
370
    -3
390
F
  0
LAYER
  5
4A
330
2
100
AcDbSymbolTableRecord
100
AcDbLayerTableRecord
  2
46
 70
     0
 62
     7
  6
Continuous
370
    -3
390
F
  0
LAYER
  5
4B
330
2
100
AcDbSymbolTableRecord
100
AcDbLayerTableRecord
  2
47
 70
     0
 62
     7
  6
Continuous
370
    -3
390
F
  0
LAYER
  5
4C
330
2
100
AcDbSymbolTableRecord
100
AcDbLayerTableRecord
  2
48
 70
     0
 62
     7
  6
Continuous
370
    -3
390
F
  0
LAYER
  5
4D
330
2
100
AcDbSymbolTableRecord
100
AcDbLayerTableRecord
  2
49
 70
     0
 62
     7
  6
Continuous
370
    -3
390
F
  0
LAYER
  5
4E
330
2
100
AcDbSymbolTableRecord
100
AcDbLayerTableRecord
  2
50
 70
     0
 62
     7
  6
Continuous
370
    -3
390
F
  0
ENDTAB
  0
TABLE
  2
STYLE
  5
3
330
0
100
AcDbSymbolTable
 70
     1
  0
STYLE
  5
11
330
3
100
AcDbSymbolTableRecord
100
AcDbTextStyleTableRecord
  2
Standard
 70
     0
 40
0.0
 41
1.0
 50
0.0
 71
     0
 42
0.2
  3
txt
  4

  0
ENDTAB
  0
TABLE
  2
VIEW
  5
6
330
0
100
AcDbSymbolTable
 70
     0
  0
ENDTAB
  0
TABLE
  2
UCS
  5
7
330
0
100
AcDbSymbolTable
 70
     0
  0
ENDTAB
  0
TABLE
  2
APPID
  5
9
330
0
100
AcDbSymbolTable
 70
     1
  0
APPID
  5
12
330
9
100
AcDbSymbolTableRecord
100
AcDbRegAppTableRecord
  2
ACAD
 70
     0
  0
ENDTAB
  0
TABLE
  2
DIMSTYLE
  5
A
330
0
100
AcDbSymbolTable
 70
    19
100
AcDbDimStyleTable
  0
DIMSTYLE
105
27
330
A
100
AcDbSymbolTableRecord
100
AcDbDimStyleTableRecord
  2
Standard
 70
     0
 41
3.5
 42
4.0
 44
4.0
 73
     0
 74
     0
 77
     1
140
3.5
172
     1
176
     7
177
     7
178
    50
289
     1
340
11
  0
DIMSTYLE
105
793
102
{ACAD_REACTORS
330
5F
102
}
330
A
100
AcDbSymbolTableRecord
100
AcDbDimStyleTableRecord
  2
2
 70
     0
 41
3.5
 42
4.0
 44
4.0
 73
     0
 74
     0
 77
     1
140
3.5
172
     1
176
     7
177
     7
178
     7
271
     2
289
     1
340
11
  0
DIMSTYLE
105
7A
102
{ACAD_REACTORS
330
7B
102
}
330
A
100
AcDbSymbolTableRecord
100
AcDbDimStyleTableRecord
  2
3
 70
     0
 41
3.5
 42
4.0
 44
4.0
 73
     0
 74
     0
 77
     1
140
3.5
172
     1
176
     7
177
     7
178
     7
271
     2
289
     1
340
11
  0
DIMSTYLE
105
108
102
{ACAD_REACTORS
330
109
102
}
330
A
100
AcDbSymbolTableRecord
100
AcDbDimStyleTableRecord
  2
4
 70
     0
 41
3.5
 42
4.0
 44
4.0
 73
     0
 74
     0
 77
     1
140
3.5
172
     1
176
     7
177
     7
178
     7
271
     2
289
     1
340
11
  0
DIMSTYLE
105
118
102
{ACAD_REACTORS
330
119
102
}
330
A
100
AcDbSymbolTableRecord
100
AcDbDimStyleTableRecord
  2
5
 70
     0
 41
3.5
 42
4.0
 44
4.0
 73
     0
 74
     0
 77
     1
140
3.5
172
     1
176
     7
177
     7
178
     7
271
     2
289
     1
340
11
  0
DIMSTYLE
105
128
102
{ACAD_REACTORS
330
129
102
}
330
A
100
AcDbSymbolTableRecord
100
AcDbDimStyleTableRecord
  2
6
 70
     0
 41
3.5
 42
4.0
 44
4.0
 73
     0
 74
     0
 77
     1
140
3.5
172
     1
176
     7
177
     7
178
     7
271
     2
289
     1
340
11
  0
DIMSTYLE
105
138
102
{ACAD_REACTORS
330
139
102
}
330
A
100
AcDbSymbolTableRecord
100
AcDbDimStyleTableRecord
  2
7
 70
     0
 41
3.5
 42
4.0
 44
4.0
 73
     0
 74
     0
 77
     1
140
3.5
172
     1
176
     7
177
     7
178
     7
271
     2
289
     1
340
11
  0
DIMSTYLE
105
14D
102
{ACAD_REACTORS
330
14E
102
}
330
A
100
AcDbSymbolTableRecord
100
AcDbDimStyleTableRecord
  2
8
 70
     0
 41
3.5
 42
4.0
 44
4.0
 73
     0
 74
     0
 77
     1
140
3.5
172
     1
176
     7
177
     7
178
     7
271
     2
289
     1
340
11
  0
DIMSTYLE
105
160
102
{ACAD_REACTORS
330
161
102
}
330
A
100
AcDbSymbolTableRecord
100
AcDbDimStyleTableRecord
  2
9
 70
     0
 41
3.5
 42
4.0
 44
4.0
 73
     0
 74
     0
 77
     1
140
3.5
172
     1
176
     7
177
     7
178
     7
271
     2
289
     1
340
11
  0
DIMSTYLE
105
18C
102
{ACAD_REACTORS
330
18D
102
}
330
A
100
AcDbSymbolTableRecord
100
AcDbDimStyleTableRecord
  2
10
 70
     0
 41
3.5
 42
4.0
 44
4.0
 73
     0
 74
     0
 77
     1
140
3.5
172
     1
176
     7
177
     7
178
     7
271
     2
289
     1
340
11
  0
DIMSTYLE
105
1A0
102
{ACAD_REACTORS
330
1A1
102
}
330
A
100
AcDbSymbolTableRecord
100
AcDbDimStyleTableRecord
  2
11
 70
     0
 41
3.5
 42
4.0
 44
4.0
 73
     0
 74
     0
 77
     1
140
3.5
172
     1
176
     7
177
     7
178
     7
271
     2
289
     1
340
11
  0
DIMSTYLE
105
1B7
102
{ACAD_REACTORS
330
1B8
102
}
330
A
100
AcDbSymbolTableRecord
100
AcDbDimStyleTableRecord
  2
12
 70
     0
 41
3.5
 42
4.0
 44
4.0
 73
     0
 74
     0
 77
     1
140
3.5
172
     1
176
     7
177
     7
178
     7
271
     2
289
     1
340
11
  0
DIMSTYLE
105
1D3
102
{ACAD_REACTORS
330
1D4
102
}
330
A
100
AcDbSymbolTableRecord
100
AcDbDimStyleTableRecord
  2
13
 70
     0
 41
3.5
 42
4.0
 44
4.0
 73
     0
 74
     0
 77
     1
140
3.5
172
     1
176
     7
177
     7
178
     7
271
     2
289
     1
340
11
  0
DIMSTYLE
105
226
102
{ACAD_REACTORS
330
227
102
}
330
A
100
AcDbSymbolTableRecord
100
AcDbDimStyleTableRecord
  2
14
 70
     0
 41
3.5
 42
4.0
 44
4.0
 73
     0
 74
     0
 77
     1
140
3.5
172
     1
176
     7
177
     7
178
     7
271
     2
289
     1
340
11
  0
DIMSTYLE
105
238
102
{ACAD_REACTORS
330
239
102
}
330
A
100
AcDbSymbolTableRecord
100
AcDbDimStyleTableRecord
  2
15
 70
     0
 41
3.5
 42
4.0
 44
4.0
 73
     0
 74
     0
 77
     1
140
3.5
172
     1
176
     7
177
     7
178
     7
271
     2
289
     1
340
11
  0
DIMSTYLE
105
24A
102
{ACAD_REACTORS
330
24B
102
}
330
A
100
AcDbSymbolTableRecord
100
AcDbDimStyleTableRecord
  2
16
 70
     0
 41
3.5
 42
4.0
 44
4.0
 73
     0
 74
     0
 77
     1
140
3.5
172
     1
176
     7
177
     7
178
     7
271
     2
289
     1
340
11
  0
DIMSTYLE
105
3C1
102
{ACAD_REACTORS
330
3C2
102
}
330
A
100
AcDbSymbolTableRecord
100
AcDbDimStyleTableRecord
  2
17
 70
     0
 41
3.5
 42
4.0
 44
4.0
 73
     0
 74
     0
 77
     1
140
3.5
172
     1
176
     7
177
     7
178
     7
271
     2
289
     1
340
11
  0
DIMSTYLE
105
626
102
{ACAD_REACTORS
330
627
102
}
330
A
100
AcDbSymbolTableRecord
100
AcDbDimStyleTableRecord
  2
18
 70
     0
 41
3.5
 42
4.0
 44
4.0
 73
     0
 74
     0
 77
     1
140
3.5
172
     1
176
     7
177
     7
178
     7
271
     2
289
     1
340
11
  0
DIMSTYLE
105
75D
102
{ACAD_REACTORS
330
75E
102
}
330
A
100
AcDbSymbolTableRecord
100
AcDbDimStyleTableRecord
  2
19
 70
     0
 41
3.5
 42
4.0
 44
4.0
 73
     0
 74
     0
 77
     1
140
3.5
172
     1
176
     7
177
     7
178
     7
271
     2
289
     1
340
11
  0
ENDTAB
  0
TABLE
  2
BLOCK_RECORD
  5
1
330
0
100
AcDbSymbolTable
 70
    23
  0
BLOCK_RECORD
  5
1F
102
{ACAD_XDICTIONARY
360
7F0
102
}
330
1
100
AcDbSymbolTableRecord
100
AcDbBlockTableRecord
  2
*Model_Space
340
22
  0
BLOCK_RECORD
  5
73
330
1
100
AcDbSymbolTableRecord
100
AcDbBlockTableRecord
  2
*Paper_Space
340
74
  0
BLOCK_RECORD
  5
4F
330
1
100
AcDbSymbolTableRecord
100
AcDbBlockTableRecord
  2
*D0
340
0
  0
BLOCK_RECORD
  5
60
330
1
100
AcDbSymbolTableRecord
100
AcDbBlockTableRecord
  2
*U1
340
0
102
{BLKREFS
331
69
102
}
  0
BLOCK_RECORD
  5
798
330
1
100
AcDbSymbolTableRecord
100
AcDbBlockTableRecord
  2
*D2
340
0
  0
BLOCK_RECORD
  5
FA
330
1
100
AcDbSymbolTableRecord
100
AcDbBlockTableRecord
  2
*D3
340
0
  0
BLOCK_RECORD
  5
10A
330
1
100
AcDbSymbolTableRecord
100
AcDbBlockTableRecord
  2
*D4
340
0
  0
BLOCK_RECORD
  5
11A
330
1
100
AcDbSymbolTableRecord
100
AcDbBlockTableRecord
  2
*D5
340
0
  0
BLOCK_RECORD
  5
12A
330
1
100
AcDbSymbolTableRecord
100
AcDbBlockTableRecord
  2
*D6
340
0
  0
BLOCK_RECORD
  5
13F
330
1
100
AcDbSymbolTableRecord
100
AcDbBlockTableRecord
  2
*D7
340
0
  0
BLOCK_RECORD
  5
151
330
1
100
AcDbSymbolTableRecord
100
AcDbBlockTableRecord
  2
*D8
340
0
  0
BLOCK_RECORD
  5
17E
330
1
100
AcDbSymbolTableRecord
100
AcDbBlockTableRecord
  2
*D9
340
0
  0
BLOCK_RECORD
  5
192
330
1
100
AcDbSymbolTableRecord
100
AcDbBlockTableRecord
  2
*D10
340
0
  0
BLOCK_RECORD
  5
1A9
330
1
100
AcDbSymbolTableRecord
100
AcDbBlockTableRecord
  2
*D11
340
0
  0
BLOCK_RECORD
  5
1C5
330
1
100
AcDbSymbolTableRecord
100
AcDbBlockTableRecord
  2
*D12
340
0
  0
BLOCK_RECORD
  5
217
330
1
100
AcDbSymbolTableRecord
100
AcDbBlockTableRecord
  2
*D13
340
0
  0
BLOCK_RECORD
  5
22A
330
1
100
AcDbSymbolTableRecord
100
AcDbBlockTableRecord
  2
*D14
340
0
  0
BLOCK_RECORD
  5
23C
330
1
100
AcDbSymbolTableRecord
100
AcDbBlockTableRecord
  2
*D15
340
0
  0
BLOCK_RECORD
  5
3B3
330
1
100
AcDbSymbolTableRecord
100
AcDbBlockTableRecord
  2
*D16
340
0
  0
BLOCK_RECORD
  5
4DD
330
1
100
AcDbSymbolTableRecord
100
AcDbBlockTableRecord
  2
*U17
340
0
  0
BLOCK_RECORD
  5
4E8
330
1
100
AcDbSymbolTableRecord
100
AcDbBlockTableRecord
  2
*U18
340
0
  0
BLOCK_RECORD
  5
5AE
330
1
100
AcDbSymbolTableRecord
100
AcDbBlockTableRecord
  2
*U19
340
0
  0
BLOCK_RECORD
  5
5B9
330
1
100
AcDbSymbolTableRecord
100
AcDbBlockTableRecord
  2
*U20
340
0
  0
BLOCK_RECORD
  5
618
330
1
100
AcDbSymbolTableRecord
100
AcDbBlockTableRecord
  2
*D21
340
0
  0
BLOCK_RECORD
  5
74F
330
1
100
AcDbSymbolTableRecord
100
AcDbBlockTableRecord
  2
*D22
340
0
  0
ENDTAB
  0
ENDSEC
  0
SECTION
  2
BLOCKS
  0
BLOCK
  5
20
330
1F
100
AcDbEntity
  8
0
100
AcDbBlockBegin
  2
*Model_Space
 70
     0
 10
0.0
 20
0.0
 30
0.0
  3
*Model_Space
  1

  0
ENDBLK
  5
21
330
1F
100
AcDbEntity
  8
0
100
AcDbBlockEnd
  0
BLOCK
  5
75
330
73
100
AcDbEntity
 67
     1
  8
0
100
AcDbBlockBegin
  2
*Paper_Space
 70
     0
 10
0.0
 20
0.0
 30
0.0
  3
*Paper_Space
  1

  0
ENDBLK
  5
76
330
73
100
AcDbEntity
 67
     1
  8
0
100
AcDbBlockEnd
  0
BLOCK
  5
794
330
4F
100
AcDbEntity
  8
0
100
AcDbBlockBegin
  2
*D0
 70
     1
 10
0.0
 20
0.0
 30
0.0
  3
*D0
  1

  0
LINE
  5
52
330
4F
100
AcDbEntity
  8
1
  6
SOLID
 62
     7
100
AcDbLine
 10
-1133.426025391
 20
423.177581787
 30
0.0
 11
-1133.426025391
 21
366.938079834
 31
0.0
  0
LINE
  5
53
330
4F
100
AcDbEntity
  8
1
  6
SOLID
 62
     7
100
AcDbLine
 10
-1037.42565918
 20
582.657836914
 30
0.0
 11
-1037.42565918
 21
366.938079834
 31
0.0
  0
LINE
  5
54
330
4F
100
AcDbEntity
  8
1
  6
SOLID
 62
     7
100
AcDbLine
 10
-1133.426025391
 20
368.509521484
 30
0.0
 11
-1037.42565918
 21
368.509521484
 31
0.0
  0
LINE
  5
55
330
4F
100
AcDbEntity
  8
1
  6
SOLID
 62
     7
100
AcDbLine
 10
-1122.426025391
 20
370.342681885
 30
0.0
 11
-1133.426025391
 21
368.509521484
 31
0.0
  0
LINE
  5
56
330
4F
100
AcDbEntity
  8
1
  6
SOLID
 62
     7
100
AcDbLine
 10
-1133.426025391
 20
368.509521484
 30
0.0
 11
-1122.426025391
 21
366.676361084
 31
0.0
  0
LINE
  5
57
330
4F
100
AcDbEntity
  8
1
  6
SOLID
 62
     7
100
AcDbLine
 10
-1122.426025391
 20
366.676361084
 30
0.0
 11
-1122.426025391
 21
370.342681885
 31
0.0
  0
LINE
  5
58
330
4F
100
AcDbEntity
  8
1
  6
SOLID
 62
     7
100
AcDbLine
 10
-1037.42565918
 20
368.509521484
 30
0.0
 11
-1133.426025391
 21
368.509521484
 31
0.0
  0
LINE
  5
7C3
330
4F
100
AcDbEntity
  8
1
  6
SOLID
 62
     7
100
AcDbLine
 10
-1048.42565918
 20
366.676361084
 30
0.0
 11
-1037.42565918
 21
368.509521484
 31
0.0
  0
LINE
  5
7C4
330
4F
100
AcDbEntity
  8
1
  6
SOLID
 62
     7
100
AcDbLine
 10
-1037.42565918
 20
368.509521484
 30
0.0
 11
-1048.42565918
 21
370.342681885
 31
0.0
  0
LINE
  5
5B
330
4F
100
AcDbEntity
  8
1
  6
SOLID
 62
     7
100
AcDbLine
 10
-1048.42565918
 20
370.342681885
 30
0.0
 11
-1048.42565918
 21
366.676361084
 31
0.0
  0
TEXT
  5
5C
330
4F
100
AcDbEntity
  8
1
  6
SOLID
 62
     7
100
AcDbText
 10
-1098.807739258
 20
374.009521484
 30
0.0
 40
11.0
  1
106
 41
1.12123357536657
 72
     5
 11
-1072.043893814
 21
374.009521484
 31
0.0
100
AcDbText
  0
ENDBLK
  5
795
330
4F
100
AcDbEntity
  8
0
100
AcDbBlockEnd
  0
BLOCK
  5
796
330
60
100
AcDbEntity
  8
0
100
AcDbBlockBegin
  2
*U1
 70
     1
 10
0.0
 20
0.0
 30
0.0
  3
*U1
  1

  0
LINE
  5
62
330
60
100
AcDbEntity
  8
1
  6
SOLID
 62
     7
100
AcDbLine
 10
-500.833709717
 20
464.9921875
 30
0.0
 11
-468.392150879
 21
529.486083984
 31
0.0
  0
LINE
  5
63
330
60
100
AcDbEntity
  8
1
  6
SOLID
 62
     7
100
AcDbLine
 10
-497.528289795
 20
475.64276123
 30
0.0
 11
-500.833709717
 21
464.9921875
 31
0.0
  0
LINE
  5
64
330
60
100
AcDbEntity
  8
1
  6
SOLID
 62
     7
100
AcDbLine
 10
-500.833709717
 20
464.9921875
 30
0.0
 11
-494.25302124
 21
473.995239258
 31
0.0
  0
LINE
  5
65
330
60
100
AcDbEntity
  8
1
  6
SOLID
 62
     7
100
AcDbLine
 10
-494.25302124
 20
473.995239258
 30
0.0
 11
-497.528289795
 21
475.64276123
 31
0.0
  0
TEXT
  5
66
330
60
100
AcDbEntity
  8
1
  6
SOLID
 62
     7
100
AcDbText
 10
-538.813354492
 20
535.132080078
 30
0.0
 40
11.0
  1
4xM16x40
 41
0.8212907301889185
 72
     5
 11
-474.038154602
 21
535.132080078
 31
0.0
100
AcDbText
  0
LINE
  5
67
330
60
100
AcDbEntity
  8
1
  6
SOLID
 62
     7
100
AcDbLine
 10
-544.459350586
 20
529.486083984
 30
0.0
 11
-468.392150879
 21
529.486083984
 31
0.0
  0
ENDBLK
  5
797
330
60
100
AcDbEntity
  8
0
100
AcDbBlockEnd
  0
BLOCK
  5
799
330
798
100
AcDbEntity
  8
0
100
AcDbBlockBegin
  2
*D2
 70
     1
 10
0.0
 20
0.0
 30
0.0
  3
*D2
  1

  0
LINE
  5
6E
330
798
100
AcDbEntity
  8
1
  6
SOLID
 62
     7
100
AcDbLine
 10
-1097.42565918
 20
728.32043457
 30
0.0
 11
-1097.42565918
 21
776.268310547
 31
0.0
  0
LINE
  5
6F
330
798
100
AcDbEntity
  8
1
  6
SOLID
 62
     7
100
AcDbLine
 10
-977.42565918
 20
728.32043457
 30
0.0
 11
-977.42565918
 21
776.268310547
 31
0.0
  0
LINE
  5
70
330
798
100
AcDbEntity
  8
1
  6
SOLID
 62
     7
100
AcDbLine
 10
-1097.42565918
 20
774.696899414
 30
0.0
 11
-977.42565918
 21
774.696899414
 31
0.0
  0
LINE
  5
71
330
798
100
AcDbEntity
  8
1
  6
SOLID
 62
     7
100
AcDbLine
 10
-1086.42565918
 20
776.530029297
 30
0.0
 11
-1097.42565918
 21
774.696899414
 31
0.0
  0
LINE
  5
72
330
798
100
AcDbEntity
  8
1
  6
SOLID
 62
     7
100
AcDbLine
 10
-1097.42565918
 20
774.696899414
 30
0.0
 11
-1086.42565918
 21
772.863769531
 31
0.0
  0
LINE
  5
7C5
330
798
100
AcDbEntity
  8
1
  6
SOLID
 62
     7
100
AcDbLine
 10
-1086.42565918
 20
772.863769531
 30
0.0
 11
-1086.42565918
 21
776.530029297
 31
0.0
  0
LINE
  5
7C6
330
798
100
AcDbEntity
  8
1
  6
SOLID
 62
     7
100
AcDbLine
 10
-977.42565918
 20
774.696899414
 30
0.0
 11
-1097.42565918
 21
774.696899414
 31
0.0
  0
LINE
  5
7C7
330
798
100
AcDbEntity
  8
1
  6
SOLID
 62
     7
100
AcDbLine
 10
-988.42565918
 20
772.863769531
 30
0.0
 11
-977.42565918
 21
774.696899414
 31
0.0
  0
LINE
  5
7C8
330
798
100
AcDbEntity
  8
1
  6
SOLID
 62
     7
100
AcDbLine
 10
-977.42565918
 20
774.696899414
 30
0.0
 11
-988.42565918
 21
776.530029297
 31
0.0
  0
LINE
  5
77
330
798
100
AcDbEntity
  8
1
  6
SOLID
 62
     7
100
AcDbLine
 10
-988.42565918
 20
776.530029297
 30
0.0
 11
-988.42565918
 21
772.863769531
 31
0.0
  0
TEXT
  5
78
330
798
100
AcDbEntity
  8
1
  6
SOLID
 62
     7
100
AcDbText
 10
-1050.348999023
 20
780.196899414
 30
0.0
 40
11.0
  1
120
 41
1.082807492124008
 72
     5
 11
-1024.502384186
 21
780.196899414
 31
0.0
100
AcDbText
  0
ENDBLK
  5
79A
330
798
100
AcDbEntity
  8
0
100
AcDbBlockEnd
  0
BLOCK
  5
79B
330
FA
100
AcDbEntity
  8
0
100
AcDbBlockBegin
  2
*D3
 70
     1
 10
0.0
 20
0.0
 30
0.0
  3
*D3
  1

  0
LINE
  5
FC
330
FA
100
AcDbEntity
  8
1
  6
SOLID
 62
     7
100
AcDbLine
 10
-729.688903809
 20
421.776062012
 30
0.0
 11
-729.688903809
 21
365.73651123
 31
0.0
  0
LINE
  5
FD
330
FA
100
AcDbEntity
  8
1
  6
SOLID
 62
     7
100
AcDbLine
 10
-469.688903809
 20
421.776062012
 30
0.0
 11
-469.688903809
 21
365.73651123
 31
0.0
  0
LINE
  5
FE
330
FA
100
AcDbEntity
  8
1
  6
SOLID
 62
     7
100
AcDbLine
 10
-729.688903809
 20
368.709472656
 30
0.0
 11
-469.688903809
 21
368.709472656
 31
0.0
  0
LINE
  5
FF
330
FA
100
AcDbEntity
  8
1
  6
SOLID
 62
     7
100
AcDbLine
 10
-718.688903809
 20
370.542633057
 30
0.0
 11
-729.688903809
 21
368.709472656
 31
0.0
  0
LINE
  5
100
330
FA
100
AcDbEntity
  8
1
  6
SOLID
 62
     7
100
AcDbLine
 10
-729.688903809
 20
368.709472656
 30
0.0
 11
-718.688903809
 21
366.876312256
 31
0.0
  0
LINE
  5
101
330
FA
100
AcDbEntity
  8
1
  6
SOLID
 62
     7
100
AcDbLine
 10
-718.688903809
 20
366.876312256
 30
0.0
 11
-718.688903809
 21
370.542633057
 31
0.0
  0
LINE
  5
102
330
FA
100
AcDbEntity
  8
1
  6
SOLID
 62
     7
100
AcDbLine
 10
-469.688903809
 20
368.709472656
 30
0.0
 11
-729.688903809
 21
368.709472656
 31
0.0
  0
LINE
  5
103
330
FA
100
AcDbEntity
  8
1
  6
SOLID
 62
     7
100
AcDbLine
 10
-480.688903809
 20
366.876312256
 30
0.0
 11
-469.688903809
 21
368.709472656
 31
0.0
  0
LINE
  5
104
330
FA
100
AcDbEntity
  8
1
  6
SOLID
 62
     7
100
AcDbLine
 10
-469.688903809
 20
368.709472656
 30
0.0
 11
-480.688903809
 21
370.542633057
 31
0.0
  0
LINE
  5
105
330
FA
100
AcDbEntity
  8
1
  6
SOLID
 62
     7
100
AcDbLine
 10
-480.688903809
 20
370.542633057
 30
0.0
 11
-480.688903809
 21
366.876312256
 31
0.0
  0
TEXT
  5
106
330
FA
100
AcDbEntity
  8
1
  6
SOLID
 62
     7
100
AcDbText
 10
-612.612182617
 20
374.209472656
 30
0.0
 40
11.0
  1
260
 41
0.9398769031636386
 72
     5
 11
-586.76556778
 21
374.209472656
 31
0.0
100
AcDbText
  0
ENDBLK
  5
79C
330
FA
100
AcDbEntity
  8
0
100
AcDbBlockEnd
  0
BLOCK
  5
79D
330
10A
100
AcDbEntity
  8
0
100
AcDbBlockBegin
  2
*D4
 70
     1
 10
0.0
 20
0.0
 30
0.0
  3
*D4
  1

  0
LINE
  5
10C
330
10A
100
AcDbEntity
  8
1
  6
SOLID
 62
     7
100
AcDbLine
 10
-699.688903809
 20
409.72479248
 30
0.0
 11
-699.688903809
 21
387.73651123
 31
0.0
  0
LINE
  5
10D
330
10A
100
AcDbEntity
  8
1
  6
SOLID
 62
     7
100
AcDbLine
 10
-499.688903809
 20
409.72479248
 30
0.0
 11
-499.688903809
 21
387.73651123
 31
0.0
  0
LINE
  5
10E
330
10A
100
AcDbEntity
  8
1
  6
SOLID
 62
     7
100
AcDbLine
 10
-699.688903809
 20
390.709472656
 30
0.0
 11
-499.688903809
 21
390.709472656
 31
0.0
  0
LINE
  5
10F
330
10A
100
AcDbEntity
  8
1
  6
SOLID
 62
     7
100
AcDbLine
 10
-688.688903809
 20
392.542633057
 30
0.0
 11
-699.688903809
 21
390.709472656
 31
0.0
  0
LINE
  5
110
330
10A
100
AcDbEntity
  8
1
  6
SOLID
 62
     7
100
AcDbLine
 10
-699.688903809
 20
390.709472656
 30
0.0
 11
-688.688903809
 21
388.876312256
 31
0.0
  0
LINE
  5
111
330
10A
100
AcDbEntity
  8
1
  6
SOLID
 62
     7
100
AcDbLine
 10
-688.688903809
 20
388.876312256
 30
0.0
 11
-688.688903809
 21
392.542633057
 31
0.0
  0
LINE
  5
112
330
10A
100
AcDbEntity
  8
1
  6
SOLID
 62
     7
100
AcDbLine
 10
-499.688903809
 20
390.709472656
 30
0.0
 11
-699.688903809
 21
390.709472656
 31
0.0
  0
LINE
  5
113
330
10A
100
AcDbEntity
  8
1
  6
SOLID
 62
     7
100
AcDbLine
 10
-510.688903809
 20
388.876312256
 30
0.0
 11
-499.688903809
 21
390.709472656
 31
0.0
  0
LINE
  5
114
330
10A
100
AcDbEntity
  8
1
  6
SOLID
 62
     7
100
AcDbLine
 10
-499.688903809
 20
390.709472656
 30
0.0
 11
-510.688903809
 21
392.542633057
 31
0.0
  0
LINE
  5
115
330
10A
100
AcDbEntity
  8
1
  6
SOLID
 62
     7
100
AcDbLine
 10
-510.688903809
 20
392.542633057
 30
0.0
 11
-510.688903809
 21
388.876312256
 31
0.0
  0
TEXT
  5
116
330
10A
100
AcDbEntity
  8
1
  6
SOLID
 62
     7
100
AcDbText
 10
-612.612182617
 20
396.209472656
 30
0.0
 40
11.0
  1
200
 41
1.008451612836522
 72
     5
 11
-586.76556778
 21
396.209472656
 31
0.0
100
AcDbText
  0
ENDBLK
  5
79E
330
10A
100
AcDbEntity
  8
0
100
AcDbBlockEnd
  0
BLOCK
  5
79F
330
11A
100
AcDbEntity
  8
0
100
AcDbBlockBegin
  2
*D5
 70
     1
 10
0.0
 20
0.0
 30
0.0
  3
*D5
  1

  0
LINE
  5
11C
330
11A
100
AcDbEntity
  8
1
  6
SOLID
 62
     7
100
AcDbLine
 10
-669.688903809
 20
421.776062012
 30
0.0
 11
-669.688903809
 21
409.73651123
 31
0.0
  0
LINE
  5
11D
330
11A
100
AcDbEntity
  8
1
  6
SOLID
 62
     7
100
AcDbLine
 10
-529.688903809
 20
421.776062012
 30
0.0
 11
-529.688903809
 21
409.73651123
 31
0.0
  0
LINE
  5
11E
330
11A
100
AcDbEntity
  8
1
  6
SOLID
 62
     7
100
AcDbLine
 10
-669.688903809
 20
412.709472656
 30
0.0
 11
-529.688903809
 21
412.709472656
 31
0.0
  0
LINE
  5
11F
330
11A
100
AcDbEntity
  8
1
  6
SOLID
 62
     7
100
AcDbLine
 10
-658.688903809
 20
414.542633057
 30
0.0
 11
-669.688903809
 21
412.709472656
 31
0.0
  0
LINE
  5
120
330
11A
100
AcDbEntity
  8
1
  6
SOLID
 62
     7
100
AcDbLine
 10
-669.688903809
 20
412.709472656
 30
0.0
 11
-658.688903809
 21
410.876312256
 31
0.0
  0
LINE
  5
121
330
11A
100
AcDbEntity
  8
1
  6
SOLID
 62
     7
100
AcDbLine
 10
-658.688903809
 20
410.876312256
 30
0.0
 11
-658.688903809
 21
414.542633057
 31
0.0
  0
LINE
  5
122
330
11A
100
AcDbEntity
  8
1
  6
SOLID
 62
     7
100
AcDbLine
 10
-529.688903809
 20
412.709472656
 30
0.0
 11
-669.688903809
 21
412.709472656
 31
0.0
  0
LINE
  5
123
330
11A
100
AcDbEntity
  8
1
  6
SOLID
 62
     7
100
AcDbLine
 10
-540.688903809
 20
410.876312256
 30
0.0
 11
-529.688903809
 21
412.709472656
 31
0.0
  0
LINE
  5
124
330
11A
100
AcDbEntity
  8
1
  6
SOLID
 62
     7
100
AcDbLine
 10
-529.688903809
 20
412.709472656
 30
0.0
 11
-540.688903809
 21
414.542633057
 31
0.0
  0
LINE
  5
125
330
11A
100
AcDbEntity
  8
1
  6
SOLID
 62
     7
100
AcDbLine
 10
-540.688903809
 20
414.542633057
 30
0.0
 11
-540.688903809
 21
410.876312256
 31
0.0
  0
TEXT
  5
126
330
11A
100
AcDbEntity
  8
1
  6
SOLID
 62
     7
100
AcDbText
 10
-612.612182617
 20
418.209472656
 30
0.0
 40
11.0
  1
140
 41
1.082807492124008
 72
     5
 11
-586.76556778
 21
418.209472656
 31
0.0
100
AcDbText
  0
ENDBLK
  5
7A0
330
11A
100
AcDbEntity
  8
0
100
AcDbBlockEnd
  0
BLOCK
  5
7A1
330
12A
100
AcDbEntity
  8
0
100
AcDbBlockBegin
  2
*D6
 70
     1
 10
0.0
 20
0.0
 30
0.0
  3
*D6
  1

  0
LINE
  5
12C
330
12A
100
AcDbEntity
  8
1
  6
SOLID
 62
     7
100
AcDbLine
 10
-470.688903809
 20
424.749023438
 30
0.0
 11
-522.416442871
 21
424.749023438
 31
0.0
  0
LINE
  5
12D
330
12A
100
AcDbEntity
  8
1
  6
SOLID
 62
     7
100
AcDbLine
 10
-479.685974121
 20
464.749023438
 30
0.0
 11
-522.416442871
 21
464.749023438
 31
0.0
  0
LINE
  5
12E
330
12A
100
AcDbEntity
  8
1
  6
SOLID
 62
     7
100
AcDbLine
 10
-521.416442871
 20
424.749023438
 30
0.0
 11
-521.416442871
 21
464.749023438
 31
0.0
  0
LINE
  5
12F
330
12A
100
AcDbEntity
  8
1
  6
SOLID
 62
     7
100
AcDbLine
 10
-522.03302002
 20
428.449035645
 30
0.0
 11
-521.416442871
 21
424.749023438
 31
0.0
  0
LINE
  5
130
330
12A
100
AcDbEntity
  8
1
  6
SOLID
 62
     7
100
AcDbLine
 10
-521.416442871
 20
424.749023438
 30
0.0
 11
-520.799865723
 21
428.449035645
 31
0.0
  0
LINE
  5
131
330
12A
100
AcDbEntity
  8
1
  6
SOLID
 62
     7
100
AcDbLine
 10
-520.799865723
 20
428.449035645
 30
0.0
 11
-522.03302002
 21
428.449035645
 31
0.0
  0
LINE
  5
132
330
12A
100
AcDbEntity
  8
1
  6
SOLID
 62
     7
100
AcDbLine
 10
-521.416442871
 20
464.749023438
 30
0.0
 11
-521.416442871
 21
424.749023438
 31
0.0
  0
LINE
  5
133
330
12A
100
AcDbEntity
  8
1
  6
SOLID
 62
     7
100
AcDbLine
 10
-520.799865723
 20
461.04901123
 30
0.0
 11
-521.416442871
 21
464.749023438
 31
0.0
  0
LINE
  5
134
330
12A
100
AcDbEntity
  8
1
  6
SOLID
 62
     7
100
AcDbLine
 10
-521.416442871
 20
464.749023438
 30
0.0
 11
-522.03302002
 21
461.04901123
 31
0.0
  0
LINE
  5
135
330
12A
100
AcDbEntity
  8
1
  6
SOLID
 62
     7
100
AcDbLine
 10
-522.03302002
 20
461.04901123
 30
0.0
 11
-520.799865723
 21
461.04901123
 31
0.0
  0
TEXT
  5
136
330
12A
100
AcDbEntity
  8
1
  6
SOLID
 62
     7
100
AcDbText
 10
-523.266418457
 20
442.036071777
 30
0.0
 40
3.700000048
  1
40
 50
90.00000250264112
 41
0.9776409984882624
 72
     5
 11
-523.266418694
 21
447.461979389
 31
0.0
100
AcDbText
  0
ENDBLK
  5
7A2
330
12A
100
AcDbEntity
  8
0
100
AcDbBlockEnd
  0
BLOCK
  5
7A3
330
13F
100
AcDbEntity
  8
0
100
AcDbBlockBegin
  2
*D7
 70
     1
 10
0.0
 20
0.0
 30
0.0
  3
*D7
  1

  0
LINE
  5
141
330
13F
100
AcDbEntity
  8
1
  6
SOLID
 62
     7
100
AcDbLine
 10
-1415.42590332
 20
423.177581787
 30
0.0
 11
-1415.42590332
 21
392.405609131
 31
0.0
  0
LINE
  5
142
330
13F
100
AcDbEntity
  8
1
  6
SOLID
 62
     7
100
AcDbLine
 10
-1365.42590332
 20
423.177581787
 30
0.0
 11
-1365.42590332
 21
392.405609131
 31
0.0
  0
LINE
  5
143
330
13F
100
AcDbEntity
  8
1
  6
SOLID
 62
     7
100
AcDbLine
 10
-1415.42590332
 20
393.977050781
 30
0.0
 11
-1365.42590332
 21
393.977050781
 31
0.0
  0
LINE
  5
144
330
13F
100
AcDbEntity
  8
1
  6
SOLID
 62
     7
100
AcDbLine
 10
-1404.42590332
 20
395.810211182
 30
0.0
 11
-1415.42590332
 21
393.977050781
 31
0.0
  0
LINE
  5
145
330
13F
100
AcDbEntity
  8
1
  6
SOLID
 62
     7
100
AcDbLine
 10
-1415.42590332
 20
393.977050781
 30
0.0
 11
-1404.42590332
 21
392.143890381
 31
0.0
  0
LINE
  5
146
330
13F
100
AcDbEntity
  8
1
  6
SOLID
 62
     7
100
AcDbLine
 10
-1404.42590332
 20
392.143890381
 30
0.0
 11
-1404.42590332
 21
395.810211182
 31
0.0
  0
LINE
  5
147
330
13F
100
AcDbEntity
  8
1
  6
SOLID
 62
     7
100
AcDbLine
 10
-1365.42590332
 20
393.977050781
 30
0.0
 11
-1415.42590332
 21
393.977050781
 31
0.0
  0
LINE
  5
148
330
13F
100
AcDbEntity
  8
1
  6
SOLID
 62
     7
100
AcDbLine
 10
-1376.42590332
 20
392.143890381
 30
0.0
 11
-1365.42590332
 21
393.977050781
 31
0.0
  0
LINE
  5
149
330
13F
100
AcDbEntity
  8
1
  6
SOLID
 62
     7
100
AcDbLine
 10
-1365.42590332
 20
393.977050781
 30
0.0
 11
-1376.42590332
 21
395.810211182
 31
0.0
  0
LINE
  5
14A
330
13F
100
AcDbEntity
  8
1
  6
SOLID
 62
     7
100
AcDbLine
 10
-1376.42590332
 20
395.810211182
 30
0.0
 11
-1376.42590332
 21
392.143890381
 31
0.0
  0
TEXT
  5
14B
330
13F
100
AcDbEntity
  8
1
  6
SOLID
 62
     7
100
AcDbText
 10
-1388.258666992
 20
399.477050781
 30
0.0
 40
11.0
  1
50
 41
0.9776410189696931
 72
     5
 11
-1372.127590179
 21
399.477050781
 31
0.0
100
AcDbText
  0
ENDBLK
  5
7A4
330
13F
100
AcDbEntity
  8
0
100
AcDbBlockEnd
  0
BLOCK
  5
7A5
330
151
100
AcDbEntity
  8
0
100
AcDbBlockBegin
  2
*D8
 70
     1
 10
0.0
 20
0.0
 30
0.0
  3
*D8
  1

  0
LINE
  5
153
330
151
100
AcDbEntity
  8
1
  6
SOLID
 62
     7
100
AcDbLine
 10
-1160.426025391
 20
423.177581787
 30
0.0
 11
-1160.426025391
 21
397.253875732
 31
0.0
  0
LINE
  5
154
330
151
100
AcDbEntity
  8
1
  6
SOLID
 62
     7
100
AcDbLine
 10
-1110.426025391
 20
423.177581787
 30
0.0
 11
-1110.426025391
 21
397.253875732
 31
0.0
  0
LINE
  5
155
330
151
100
AcDbEntity
  8
1
  6
SOLID
 62
     7
100
AcDbLine
 10
-1160.426025391
 20
398.825317383
 30
0.0
 11
-1078.123046875
 21
398.825317383
 31
0.0
  0
LINE
  5
156
330
151
100
AcDbEntity
  8
1
  6
SOLID
 62
     7
100
AcDbLine
 10
-1149.426025391
 20
400.658477783
 30
0.0
 11
-1160.426025391
 21
398.825317383
 31
0.0
  0
LINE
  5
157
330
151
100
AcDbEntity
  8
1
  6
SOLID
 62
     7
100
AcDbLine
 10
-1160.426025391
 20
398.825317383
 30
0.0
 11
-1149.426025391
 21
396.992156982
 31
0.0
  0
LINE
  5
158
330
151
100
AcDbEntity
  8
1
  6
SOLID
 62
     7
100
AcDbLine
 10
-1149.426025391
 20
396.992156982
 30
0.0
 11
-1149.426025391
 21
400.658477783
 31
0.0
  0
LINE
  5
159
330
151
100
AcDbEntity
  8
1
  6
SOLID
 62
     7
100
AcDbLine
 10
-1110.426025391
 20
398.825317383
 30
0.0
 11
-1160.426025391
 21
398.825317383
 31
0.0
  0
LINE
  5
15A
330
151
100
AcDbEntity
  8
1
  6
SOLID
 62
     7
100
AcDbLine
 10
-1160.426025391
 20
398.825317383
 30
0.0
 11
-1078.123046875
 21
398.825317383
 31
0.0
  0
LINE
  5
15B
330
151
100
AcDbEntity
  8
1
  6
SOLID
 62
     7
100
AcDbLine
 10
-1121.426025391
 20
396.992156982
 30
0.0
 11
-1110.426025391
 21
398.825317383
 31
0.0
  0
LINE
  5
15C
330
151
100
AcDbEntity
  8
1
  6
SOLID
 62
     7
100
AcDbLine
 10
-1110.426025391
 20
398.825317383
 30
0.0
 11
-1121.426025391
 21
400.658477783
 31
0.0
  0
LINE
  5
15D
330
151
100
AcDbEntity
  8
1
  6
SOLID
 62
     7
100
AcDbLine
 10
-1121.426025391
 20
400.658477783
 30
0.0
 11
-1121.426025391
 21
396.992156982
 31
0.0
  0
TEXT
  5
15E
330
151
100
AcDbEntity
  8
1
  6
SOLID
 62
     7
100
AcDbText
 10
-1099.112426758
 20
404.325317383
 30
0.0
 40
11.0
  1
50
 41
0.9776410189697069
 72
     5
 11
-1082.981349945
 21
404.325317383
 31
0.0
100
AcDbText
  0
ENDBLK
  5
7A6
330
151
100
AcDbEntity
  8
0
100
AcDbBlockEnd
  0
BLOCK
  5
7A7
330
17E
100
AcDbEntity
  8
0
100
AcDbBlockBegin
  2
*D9
 70
     1
 10
0.0
 20
0.0
 30
0.0
  3
*D9
  1

  0
LINE
  5
180
330
17E
100
AcDbEntity
  8
1
  6
SOLID
 62
     7
100
AcDbLine
 10
-731.25994873
 20
424.749145508
 30
0.0
 11
-775.37677002
 21
424.749145508
 31
0.0
  0
LINE
  5
181
330
17E
100
AcDbEntity
  8
1
  6
SOLID
 62
     7
100
AcDbLine
 10
-758.75994873
 20
470.749145508
 30
0.0
 11
-775.37677002
 21
470.749145508
 31
0.0
  0
LINE
  5
182
330
17E
100
AcDbEntity
  8
1
  6
SOLID
 62
     7
100
AcDbLine
 10
-773.805358887
 20
424.749145508
 30
0.0
 11
-773.805358887
 21
470.749145508
 31
0.0
  0
LINE
  5
183
330
17E
100
AcDbEntity
  8
1
  6
SOLID
 62
     7
100
AcDbLine
 10
-775.63848877
 20
435.749145508
 30
0.0
 11
-773.805358887
 21
424.749145508
 31
0.0
  0
LINE
  5
184
330
17E
100
AcDbEntity
  8
1
  6
SOLID
 62
     7
100
AcDbLine
 10
-773.805358887
 20
424.749145508
 30
0.0
 11
-771.972229004
 21
435.749145508
 31
0.0
  0
LINE
  5
185
330
17E
100
AcDbEntity
  8
1
  6
SOLID
 62
     7
100
AcDbLine
 10
-771.972229004
 20
435.749145508
 30
0.0
 11
-775.63848877
 21
435.749145508
 31
0.0
  0
LINE
  5
186
330
17E
100
AcDbEntity
  8
1
  6
SOLID
 62
     7
100
AcDbLine
 10
-773.805358887
 20
470.749145508
 30
0.0
 11
-773.805358887
 21
424.749145508
 31
0.0
  0
LINE
  5
187
330
17E
100
AcDbEntity
  8
1
  6
SOLID
 62
     7
100
AcDbLine
 10
-771.972229004
 20
459.749145508
 30
0.0
 11
-773.805358887
 21
470.749145508
 31
0.0
  0
LINE
  5
188
330
17E
100
AcDbEntity
  8
1
  6
SOLID
 62
     7
100
AcDbLine
 10
-773.805358887
 20
470.749145508
 30
0.0
 11
-775.63848877
 21
459.749145508
 31
0.0
  0
LINE
  5
189
330
17E
100
AcDbEntity
  8
1
  6
SOLID
 62
     7
100
AcDbLine
 10
-775.63848877
 20
459.749145508
 30
0.0
 11
-771.972229004
 21
459.749145508
 31
0.0
  0
TEXT
  5
18A
330
17E
100
AcDbEntity
  8
1
  6
SOLID
 62
     7
100
AcDbText
 10
-779.305358887
 20
439.225006104
 30
0.0
 40
11.0
  1
46
 50
90.00000250378837
 41
0.9280515741970633
 72
     5
 11
-779.305359632
 21
456.273313522
 31
0.0
100
AcDbText
  0
ENDBLK
  5
7A8
330
17E
100
AcDbEntity
  8
0
100
AcDbBlockEnd
  0
BLOCK
  5
7A9
330
192
100
AcDbEntity
  8
0
100
AcDbBlockBegin
  2
*D10
 70
     1
 10
0.0
 20
0.0
 30
0.0
  3
*D10
  1

  0
LINE
  5
194
330
192
100
AcDbEntity
  8
1
  6
SOLID
 62
     7
100
AcDbLine
 10
-758.75994873
 20
470.749145508
 30
0.0
 11
-775.37677002
 21
470.749145508
 31
0.0
  0
LINE
  5
195
330
192
100
AcDbEntity
  8
1
  6
SOLID
 62
     7
100
AcDbLine
 10
-758.75994873
 20
750.749145508
 30
0.0
 11
-775.37677002
 21
750.749145508
 31
0.0
  0
LINE
  5
196
330
192
100
AcDbEntity
  8
1
  6
SOLID
 62
     7
100
AcDbLine
 10
-773.805358887
 20
470.749145508
 30
0.0
 11
-773.805358887
 21
750.749145508
 31
0.0
  0
LINE
  5
197
330
192
100
AcDbEntity
  8
1
  6
SOLID
 62
     7
100
AcDbLine
 10
-775.63848877
 20
481.749145508
 30
0.0
 11
-773.805358887
 21
470.749145508
 31
0.0
  0
LINE
  5
198
330
192
100
AcDbEntity
  8
1
  6
SOLID
 62
     7
100
AcDbLine
 10
-773.805358887
 20
470.749145508
 30
0.0
 11
-771.972229004
 21
481.749145508
 31
0.0
  0
LINE
  5
199
330
192
100
AcDbEntity
  8
1
  6
SOLID
 62
     7
100
AcDbLine
 10
-771.972229004
 20
481.749145508
 30
0.0
 11
-775.63848877
 21
481.749145508
 31
0.0
  0
LINE
  5
19A
330
192
100
AcDbEntity
  8
1
  6
SOLID
 62
     7
100
AcDbLine
 10
-773.805358887
 20
750.749145508
 30
0.0
 11
-773.805358887
 21
470.749145508
 31
0.0
  0
LINE
  5
19B
330
192
100
AcDbEntity
  8
1
  6
SOLID
 62
     7
100
AcDbLine
 10
-771.972229004
 20
739.749145508
 30
0.0
 11
-773.805358887
 21
750.749145508
 31
0.0
  0
LINE
  5
19C
330
192
100
AcDbEntity
  8
1
  6
SOLID
 62
     7
100
AcDbLine
 10
-773.805358887
 20
750.749145508
 30
0.0
 11
-775.63848877
 21
739.749145508
 31
0.0
  0
LINE
  5
19D
330
192
100
AcDbEntity
  8
1
  6
SOLID
 62
     7
100
AcDbLine
 10
-775.63848877
 20
739.749145508
 30
0.0
 11
-771.972229004
 21
739.749145508
 31
0.0
  0
TEXT
  5
19E
330
192
100
AcDbEntity
  8
1
  6
SOLID
 62
     7
100
AcDbText
 10
-779.305358887
 20
597.825866699
 30
0.0
 40
11.0
  1
280
 50
90.00000250494041
 41
0.9398769031999986
 72
     5
 11
-779.305360017
 21
623.672481537
 31
0.0
100
AcDbText
  0
ENDBLK
  5
7AA
330
192
100
AcDbEntity
  8
0
100
AcDbBlockEnd
  0
BLOCK
  5
7AB
330
1A9
100
AcDbEntity
  8
0
100
AcDbBlockBegin
  2
*D11
 70
     1
 10
0.0
 20
0.0
 30
0.0
  3
*D11
  1

  0
LINE
  5
1AB
330
1A9
100
AcDbEntity
  8
1
  6
SOLID
 62
     7
100
AcDbLine
 10
-731.25994873
 20
424.749145508
 30
0.0
 11
-801.955322266
 21
424.749145508
 31
0.0
  0
LINE
  5
1AC
330
1A9
100
AcDbEntity
  8
1
  6
SOLID
 62
     7
100
AcDbLine
 10
-758.75994873
 20
750.749145508
 30
0.0
 11
-801.955322266
 21
750.749145508
 31
0.0
  0
LINE
  5
1AD
330
1A9
100
AcDbEntity
  8
1
  6
SOLID
 62
     7
100
AcDbLine
 10
-800.383911133
 20
424.749145508
 30
0.0
 11
-800.383911133
 21
750.749145508
 31
0.0
  0
LINE
  5
1AE
330
1A9
100
AcDbEntity
  8
1
  6
SOLID
 62
     7
100
AcDbLine
 10
-802.217041016
 20
435.749145508
 30
0.0
 11
-800.383911133
 21
424.749145508
 31
0.0
  0
LINE
  5
1AF
330
1A9
100
AcDbEntity
  8
1
  6
SOLID
 62
     7
100
AcDbLine
 10
-800.383911133
 20
424.749145508
 30
0.0
 11
-798.55078125
 21
435.749145508
 31
0.0
  0
LINE
  5
1B0
330
1A9
100
AcDbEntity
  8
1
  6
SOLID
 62
     7
100
AcDbLine
 10
-798.55078125
 20
435.749145508
 30
0.0
 11
-802.217041016
 21
435.749145508
 31
0.0
  0
LINE
  5
1B1
330
1A9
100
AcDbEntity
  8
1
  6
SOLID
 62
     7
100
AcDbLine
 10
-800.383911133
 20
750.749145508
 30
0.0
 11
-800.383911133
 21
424.749145508
 31
0.0
  0
LINE
  5
1B2
330
1A9
100
AcDbEntity
  8
1
  6
SOLID
 62
     7
100
AcDbLine
 10
-798.55078125
 20
739.749145508
 30
0.0
 11
-800.383911133
 21
750.749145508
 31
0.0
  0
LINE
  5
1B3
330
1A9
100
AcDbEntity
  8
1
  6
SOLID
 62
     7
100
AcDbLine
 10
-800.383911133
 20
750.749145508
 30
0.0
 11
-802.217041016
 21
739.749145508
 31
0.0
  0
LINE
  5
1B4
330
1A9
100
AcDbEntity
  8
1
  6
SOLID
 62
     7
100
AcDbLine
 10
-802.217041016
 20
739.749145508
 30
0.0
 11
-798.55078125
 21
739.749145508
 31
0.0
  0
TEXT
  5
1B5
330
1A9
100
AcDbEntity
  8
1
  6
SOLID
 62
     7
100
AcDbText
 10
-805.883911133
 20
574.367248535
 30
0.0
 40
11.0
  1
326
 50
90.00000250472465
 41
0.9112647410282579
 72
     5
 11
-805.883912303
 21
601.131093979
 31
0.0
100
AcDbText
  0
ENDBLK
  5
7AC
330
1A9
100
AcDbEntity
  8
0
100
AcDbBlockEnd
  0
BLOCK
  5
7AD
330
1C5
100
AcDbEntity
  8
0
100
AcDbBlockBegin
  2
*D12
 70
     1
 10
0.0
 20
0.0
 30
0.0
  3
*D12
  1

  0
LINE
  5
1C7
330
1C5
100
AcDbEntity
  8
1
  6
SOLID
 62
     7
100
AcDbLine
 10
-757.188537598
 20
469.177703857
 30
0.0
 11
-757.188537598
 21
345.138031006
 31
0.0
  0
LINE
  5
1C8
330
1C5
100
AcDbEntity
  8
1
  6
SOLID
 62
     7
100
AcDbLine
 10
-442.188537598
 20
469.177703857
 30
0.0
 11
-442.188537598
 21
345.138031006
 31
0.0
  0
LINE
  5
1C9
330
1C5
100
AcDbEntity
  8
1
  6
SOLID
 62
     7
100
AcDbLine
 10
-757.188537598
 20
346.709472656
 30
0.0
 11
-442.188537598
 21
346.709472656
 31
0.0
  0
LINE
  5
1CA
330
1C5
100
AcDbEntity
  8
1
  6
SOLID
 62
     7
100
AcDbLine
 10
-746.188537598
 20
348.542633057
 30
0.0
 11
-757.188537598
 21
346.709472656
 31
0.0
  0
LINE
  5
1CB
330
1C5
100
AcDbEntity
  8
1
  6
SOLID
 62
     7
100
AcDbLine
 10
-757.188537598
 20
346.709472656
 30
0.0
 11
-746.188537598
 21
344.876312256
 31
0.0
  0
LINE
  5
1CC
330
1C5
100
AcDbEntity
  8
1
  6
SOLID
 62
     7
100
AcDbLine
 10
-746.188537598
 20
344.876312256
 30
0.0
 11
-746.188537598
 21
348.542633057
 31
0.0
  0
LINE
  5
1CD
330
1C5
100
AcDbEntity
  8
1
  6
SOLID
 62
     7
100
AcDbLine
 10
-442.188537598
 20
346.709472656
 30
0.0
 11
-757.188537598
 21
346.709472656
 31
0.0
  0
LINE
  5
1CE
330
1C5
100
AcDbEntity
  8
1
  6
SOLID
 62
     7
100
AcDbLine
 10
-453.188537598
 20
344.876312256
 30
0.0
 11
-442.188537598
 21
346.709472656
 31
0.0
  0
LINE
  5
1CF
330
1C5
100
AcDbEntity
  8
1
  6
SOLID
 62
     7
100
AcDbLine
 10
-442.188537598
 20
346.709472656
 30
0.0
 11
-453.188537598
 21
348.542633057
 31
0.0
  0
LINE
  5
1D0
330
1C5
100
AcDbEntity
  8
1
  6
SOLID
 62
     7
100
AcDbLine
 10
-453.188537598
 20
348.542633057
 30
0.0
 11
-453.188537598
 21
344.876312256
 31
0.0
  0
TEXT
  5
1D1
330
1C5
100
AcDbEntity
  8
1
  6
SOLID
 62
     7
100
AcDbText
 10
-612.611816406
 20
352.209472656
 30
0.0
 40
11.0
  1
320
 41
0.9398769031636345
 72
     5
 11
-586.765201569
 21
352.209472656
 31
0.0
100
AcDbText
  0
ENDBLK
  5
7AE
330
1C5
100
AcDbEntity
  8
0
100
AcDbBlockEnd
  0
BLOCK
  5
7AF
330
217
100
AcDbEntity
  8
0
100
AcDbBlockBegin
  2
*D13
 70
     1
 10
0.0
 20
0.0
 30
0.0
  3
*D13
  1

  0
LINE
  5
219
330
217
100
AcDbEntity
  8
1
  6
SOLID
 62
     7
100
AcDbLine
 10
-975.854248047
 20
482.749023438
 30
0.0
 11
-917.850402832
 21
482.749023438
 31
0.0
  0
LINE
  5
21A
330
217
100
AcDbEntity
  8
1
  6
SOLID
 62
     7
100
AcDbLine
 10
-975.854248047
 20
726.749023438
 30
0.0
 11
-917.850402832
 21
726.749023438
 31
0.0
  0
LINE
  5
21B
330
217
100
AcDbEntity
  8
1
  6
SOLID
 62
     7
100
AcDbLine
 10
-919.421813965
 20
482.749023438
 30
0.0
 11
-919.421813965
 21
726.749023438
 31
0.0
  0
LINE
  5
21C
330
217
100
AcDbEntity
  8
1
  6
SOLID
 62
     7
100
AcDbLine
 10
-921.254943848
 20
493.749023438
 30
0.0
 11
-919.421813965
 21
482.749023438
 31
0.0
  0
LINE
  5
21D
330
217
100
AcDbEntity
  8
1
  6
SOLID
 62
     7
100
AcDbLine
 10
-919.421813965
 20
482.749023438
 30
0.0
 11
-917.588684082
 21
493.749023438
 31
0.0
  0
LINE
  5
21E
330
217
100
AcDbEntity
  8
1
  6
SOLID
 62
     7
100
AcDbLine
 10
-917.588684082
 20
493.749023438
 30
0.0
 11
-921.254943848
 21
493.749023438
 31
0.0
  0
LINE
  5
21F
330
217
100
AcDbEntity
  8
1
  6
SOLID
 62
     7
100
AcDbLine
 10
-919.421813965
 20
726.749023438
 30
0.0
 11
-919.421813965
 21
482.749023438
 31
0.0
  0
LINE
  5
220
330
217
100
AcDbEntity
  8
1
  6
SOLID
 62
     7
100
AcDbLine
 10
-917.588684082
 20
715.749023438
 30
0.0
 11
-919.421813965
 21
726.749023438
 31
0.0
  0
LINE
  5
221
330
217
100
AcDbEntity
  8
1
  6
SOLID
 62
     7
100
AcDbLine
 10
-919.421813965
 20
726.749023438
 30
0.0
 11
-921.254943848
 21
715.749023438
 31
0.0
  0
LINE
  5
222
330
217
100
AcDbEntity
  8
1
  6
SOLID
 62
     7
100
AcDbLine
 10
-921.254943848
 20
715.749023438
 30
0.0
 11
-917.588684082
 21
715.749023438
 31
0.0
  0
TEXT
  5
223
330
217
100
AcDbEntity
  8
1
  6
SOLID
 62
     7
100
AcDbText
 10
-924.921813965
 20
567.536315918
 30
0.0
 40
11.0
  1
%%c
 50
90.00000250037212
 41
0.9949482926729932
 72
     5
 11
-924.921814285
 21
574.869084835
 31
0.0
100
AcDbText
  0
TEXT
  5
224
330
217
100
AcDbEntity
  8
1
  6
SOLID
 62
     7
100
AcDbText
 10
-924.921813965
 20
580.552978516
 30
0.0
 40
11.0
  1
210/240
 50
90.00000250402661
 41
0.9804358048787878
 72
     5
 11
-924.921816793
 21
645.261741638
 31
0.0
100
AcDbText
  0
ENDBLK
  5
7B0
330
217
100
AcDbEntity
  8
0
100
AcDbBlockEnd
  0
BLOCK
  5
7B1
330
22A
100
AcDbEntity
  8
0
100
AcDbBlockBegin
  2
*D14
 70
     1
 10
0.0
 20
0.0
 30
0.0
  3
*D14
  1

  0
LINE
  5
22C
330
22A
100
AcDbEntity
  8
1
  6
SOLID
 62
     7
100
AcDbLine
 10
-1037.42565918
 20
481.177581787
 30
0.0
 11
-1037.42565918
 21
367.03793335
 31
0.0
  0
LINE
  5
22D
330
22A
100
AcDbEntity
  8
1
  6
SOLID
 62
     7
100
AcDbLine
 10
-977.42565918
 20
582.657836914
 30
0.0
 11
-977.42565918
 21
367.03793335
 31
0.0
  0
LINE
  5
22E
330
22A
100
AcDbEntity
  8
1
  6
SOLID
 62
     7
100
AcDbLine
 10
-1037.42565918
 20
368.609375
 30
0.0
 11
-977.42565918
 21
368.609375
 31
0.0
  0
LINE
  5
22F
330
22A
100
AcDbEntity
  8
1
  6
SOLID
 62
     7
100
AcDbLine
 10
-1026.42565918
 20
370.4425354
 30
0.0
 11
-1037.42565918
 21
368.609375
 31
0.0
  0
LINE
  5
230
330
22A
100
AcDbEntity
  8
1
  6
SOLID
 62
     7
100
AcDbLine
 10
-1037.42565918
 20
368.609375
 30
0.0
 11
-1026.42565918
 21
366.7762146
 31
0.0
  0
LINE
  5
231
330
22A
100
AcDbEntity
  8
1
  6
SOLID
 62
     7
100
AcDbLine
 10
-1026.42565918
 20
366.7762146
 30
0.0
 11
-1026.42565918
 21
370.4425354
 31
0.0
  0
LINE
  5
232
330
22A
100
AcDbEntity
  8
1
  6
SOLID
 62
     7
100
AcDbLine
 10
-977.42565918
 20
368.609375
 30
0.0
 11
-1037.42565918
 21
368.609375
 31
0.0
  0
LINE
  5
233
330
22A
100
AcDbEntity
  8
1
  6
SOLID
 62
     7
100
AcDbLine
 10
-988.42565918
 20
366.7762146
 30
0.0
 11
-977.42565918
 21
368.609375
 31
0.0
  0
LINE
  5
234
330
22A
100
AcDbEntity
  8
1
  6
SOLID
 62
     7
100
AcDbLine
 10
-977.42565918
 20
368.609375
 30
0.0
 11
-988.42565918
 21
370.4425354
 31
0.0
  0
LINE
  5
235
330
22A
100
AcDbEntity
  8
1
  6
SOLID
 62
     7
100
AcDbLine
 10
-988.42565918
 20
370.4425354
 30
0.0
 11
-988.42565918
 21
366.7762146
 31
0.0
  0
TEXT
  5
236
330
22A
100
AcDbEntity
  8
1
  6
SOLID
 62
     7
100
AcDbText
 10
-1015.491210938
 20
374.109375
 30
0.0
 40
11.0
  1
60
 41
0.9776410189697
 72
     5
 11
-999.360134125
 21
374.109375
 31
0.0
100
AcDbText
  0
ENDBLK
  5
7B2
330
22A
100
AcDbEntity
  8
0
100
AcDbBlockEnd
  0
BLOCK
  5
7B3
330
23C
100
AcDbEntity
  8
0
100
AcDbBlockBegin
  2
*D15
 70
     1
 10
0.0
 20
0.0
 30
0.0
  3
*D15
  1

  0
LINE
  5
23E
330
23C
100
AcDbEntity
  8
1
  6
SOLID
 62
     7
100
AcDbLine
 10
-1416.997314453
 20
424.749023438
 30
0.0
 11
-1606.538085938
 21
424.749023438
 31
0.0
  0
LINE
  5
23F
330
23C
100
AcDbEntity
  8
1
  6
SOLID
 62
     7
100
AcDbLine
 10
-1411.997436523
 20
869.748901367
 30
0.0
 11
-1606.538085938
 21
869.748901367
 31
0.0
  0
LINE
  5
240
330
23C
100
AcDbEntity
  8
1
  6
SOLID
 62
     7
100
AcDbLine
 10
-1604.966674805
 20
424.749023438
 30
0.0
 11
-1604.966674805
 21
869.748901367
 31
0.0
  0
LINE
  5
241
330
23C
100
AcDbEntity
  8
1
  6
SOLID
 62
     7
100
AcDbLine
 10
-1606.799804688
 20
435.749023438
 30
0.0
 11
-1604.966674805
 21
424.749023438
 31
0.0
  0
LINE
  5
242
330
23C
100
AcDbEntity
  8
1
  6
SOLID
 62
     7
100
AcDbLine
 10
-1604.966674805
 20
424.749023438
 30
0.0
 11
-1603.133544922
 21
435.749023438
 31
0.0
  0
LINE
  5
243
330
23C
100
AcDbEntity
  8
1
  6
SOLID
 62
     7
100
AcDbLine
 10
-1603.133544922
 20
435.749023438
 30
0.0
 11
-1606.799804688
 21
435.749023438
 31
0.0
  0
LINE
  5
244
330
23C
100
AcDbEntity
  8
1
  6
SOLID
 62
     7
100
AcDbLine
 10
-1604.966674805
 20
869.748901367
 30
0.0
 11
-1604.966674805
 21
424.749023438
 31
0.0
  0
LINE
  5
245
330
23C
100
AcDbEntity
  8
1
  6
SOLID
 62
     7
100
AcDbLine
 10
-1603.133544922
 20
858.748901367
 30
0.0
 11
-1604.966674805
 21
869.748901367
 31
0.0
  0
LINE
  5
246
330
23C
100
AcDbEntity
  8
1
  6
SOLID
 62
     7
100
AcDbLine
 10
-1604.966674805
 20
869.748901367
 30
0.0
 11
-1606.799804688
 21
858.748901367
 31
0.0
  0
LINE
  5
247
330
23C
100
AcDbEntity
  8
1
  6
SOLID
 62
     7
100
AcDbLine
 10
-1606.799804688
 20
858.748901367
 30
0.0
 11
-1603.133544922
 21
858.748901367
 31
0.0
  0
TEXT
  5
248
330
23C
100
AcDbEntity
  8
1
  6
SOLID
 62
     7
100
AcDbText
 10
-1610.466674805
 20
634.325744629
 30
0.0
 40
11.0
  1
445
 50
90.00000250272394
 41
0.880034553558051
 72
     5
 11
-1610.466675934
 21
660.172359467
 31
0.0
100
AcDbText
  0
ENDBLK
  5
7B4
330
23C
100
AcDbEntity
  8
0
100
AcDbBlockEnd
  0
BLOCK
  5
7B5
330
3B3
100
AcDbEntity
  8
0
100
AcDbBlockBegin
  2
*D16
 70
     1
 10
0.0
 20
0.0
 30
0.0
  3
*D16
  1

  0
LINE
  5
3B5
330
3B3
100
AcDbEntity
  8
1
  6
SOLID
 62
     7
100
AcDbLine
 10
-1548.345947266
 20
609.559570313
 30
0.0
 11
-1548.345947266
 21
897.34387207
 31
0.0
  0
LINE
  5
3B6
330
3B3
100
AcDbEntity
  8
1
  6
SOLID
 62
     7
100
AcDbLine
 10
-977.42565918
 20
727.749023438
 30
0.0
 11
-977.42565918
 21
897.34387207
 31
0.0
  0
LINE
  5
3B7
330
3B3
100
AcDbEntity
  8
1
  6
SOLID
 62
     7
100
AcDbLine
 10
-1548.345947266
 20
896.34387207
 30
0.0
 11
-977.42565918
 21
896.34387207
 31
0.0
  0
LINE
  5
3B8
330
3B3
100
AcDbEntity
  8
1
  6
SOLID
 62
     7
100
AcDbLine
 10
-1537.345947266
 20
898.177001953
 30
0.0
 11
-1548.345947266
 21
896.34387207
 31
0.0
  0
LINE
  5
3B9
330
3B3
100
AcDbEntity
  8
1
  6
SOLID
 62
     7
100
AcDbLine
 10
-1548.345947266
 20
896.34387207
 30
0.0
 11
-1537.345947266
 21
894.510742188
 31
0.0
  0
LINE
  5
3BA
330
3B3
100
AcDbEntity
  8
1
  6
SOLID
 62
     7
100
AcDbLine
 10
-1537.345947266
 20
894.510742188
 30
0.0
 11
-1537.345947266
 21
898.177001953
 31
0.0
  0
LINE
  5
3BB
330
3B3
100
AcDbEntity
  8
1
  6
SOLID
 62
     7
100
AcDbLine
 10
-977.42565918
 20
896.34387207
 30
0.0
 11
-1548.345947266
 21
896.34387207
 31
0.0
  0
LINE
  5
3BC
330
3B3
100
AcDbEntity
  8
1
  6
SOLID
 62
     7
100
AcDbLine
 10
-988.42565918
 20
894.510742188
 30
0.0
 11
-977.42565918
 21
896.34387207
 31
0.0
  0
LINE
  5
3BD
330
3B3
100
AcDbEntity
  8
1
  6
SOLID
 62
     7
100
AcDbLine
 10
-977.42565918
 20
896.34387207
 30
0.0
 11
-988.42565918
 21
898.177001953
 31
0.0
  0
LINE
  5
3BE
330
3B3
100
AcDbEntity
  8
1
  6
SOLID
 62
     7
100
AcDbLine
 10
-988.42565918
 20
898.177001953
 30
0.0
 11
-988.42565918
 21
894.510742188
 31
0.0
  0
TEXT
  5
3BF
330
3B3
100
AcDbEntity
  8
1
  6
SOLID
 62
     7
100
AcDbText
 10
-1275.809204102
 20
901.84387207
 30
0.0
 40
11.0
  1
580
 41
0.9398769032000018
 72
     5
 11
-1249.962589264
 21
901.84387207
 31
0.0
100
AcDbText
  0
ENDBLK
  5
7B6
330
3B3
100
AcDbEntity
  8
0
100
AcDbBlockEnd
  0
BLOCK
  5
7B7
330
4DD
100
AcDbEntity
  8
0
100
AcDbBlockBegin
  2
*U17
 70
     1
 10
0.0
 20
0.0
 30
0.0
  3
*U17
  1

  0
LINE
  5
4DF
330
4DD
100
AcDbEntity
  8
1
  6
SOLID
 62
     1
100
AcDbLine
 10
-7076.547851563
 20
5397.756835938
 30
0.0
 11
-7072.848632813
 21
5394.057617188
 31
0.0
  0
LINE
  5
4E0
330
4DD
100
AcDbEntity
  8
1
  6
SOLID
 62
     1
100
AcDbLine
 10
-7071.301269531
 20
5396.044921875
 30
0.0
 11
-7074.599609375
 21
5399.34375
 31
0.0
  0
LINE
  5
4E1
330
4DD
100
AcDbEntity
  8
1
  6
SOLID
 62
     1
100
AcDbLine
 10
-7074.669921875
 20
5402.950195313
 30
0.0
 11
-7070.528320313
 21
5398.807617188
 31
0.0
  0
LINE
  5
4E2
330
4DD
100
AcDbEntity
  8
1
  6
SOLID
 62
     1
100
AcDbLine
 10
-7067.241210938
 20
5399.056640625
 30
0.0
 11
-7071.48046875
 21
5403.295898438
 31
0.0
  0
LINE
  5
4E3
330
4DD
100
AcDbEntity
  8
1
  6
SOLID
 62
     1
100
AcDbLine
 10
-7067.945800781
 20
5403.296875
 30
0.0
 11
-7063.706054688
 21
5399.056640625
 31
0.0
  0
LINE
  5
4E4
330
4DD
100
AcDbEntity
  8
1
  6
SOLID
 62
     1
100
AcDbLine
 10
-7060.170410156
 20
5399.056640625
 30
0.0
 11
-7064.41015625
 21
5403.296875
 31
0.0
  0
LINE
  5
4E5
330
4DD
100
AcDbEntity
  8
1
  6
SOLID
 62
     1
100
AcDbLine
 10
-7060.874511719
 20
5403.296875
 30
0.0
 11
-7057.362792969
 21
5399.784179688
 31
0.0
  0
ENDBLK
  5
7B8
330
4DD
100
AcDbEntity
  8
0
100
AcDbBlockEnd
  0
BLOCK
  5
7B9
330
4E8
100
AcDbEntity
  8
0
100
AcDbBlockBegin
  2
*U18
 70
     1
 10
0.0
 20
0.0
 30
0.0
  3
*U18
  1

  0
LINE
  5
4EA
330
4E8
100
AcDbEntity
  8
1
  6
SOLID
 62
     1
100
AcDbLine
 10
-7076.424804688
 20
5387.026367188
 30
0.0
 11
-7074.214355469
 21
5384.81640625
 31
0.0
  0
LINE
  5
4EB
330
4E8
100
AcDbEntity
  8
1
  6
SOLID
 62
     1
100
AcDbLine
 10
-7070.678710938
 20
5384.81640625
 30
0.0
 11
-7075.348144531
 21
5389.485351563
 31
0.0
  0
LINE
  5
4EC
330
4E8
100
AcDbEntity
  8
1
  6
SOLID
 62
     1
100
AcDbLine
 10
-7075.696777344
 20
5393.370117188
 30
0.0
 11
-7067.143554688
 21
5384.81640625
 31
0.0
  0
LINE
  5
4ED
330
4E8
100
AcDbEntity
  8
1
  6
SOLID
 62
     1
100
AcDbLine
 10
-7063.607910156
 20
5384.81640625
 30
0.0
 11
-7067.848632813
 21
5389.056640625
 31
0.0
  0
LINE
  5
4EE
330
4E8
100
AcDbEntity
  8
1
  6
SOLID
 62
     1
100
AcDbLine
 10
-7071.300292969
 20
5392.508789063
 30
0.0
 11
-7072.848632813
 21
5394.057617188
 31
0.0
  0
LINE
  5
4EF
330
4E8
100
AcDbEntity
  8
1
  6
SOLID
 62
     1
100
AcDbLine
 10
-7064.312988281
 20
5389.056640625
 30
0.0
 11
-7060.072265625
 21
5384.81640625
 31
0.0
  0
LINE
  5
4F0
330
4E8
100
AcDbEntity
  8
1
  6
SOLID
 62
     1
100
AcDbLine
 10
-7057.441894531
 20
5385.721679688
 30
0.0
 11
-7060.77734375
 21
5389.056640625
 31
0.0
  0
ENDBLK
  5
7BA
330
4E8
100
AcDbEntity
  8
0
100
AcDbBlockEnd
  0
BLOCK
  5
7BB
330
5AE
100
AcDbEntity
  8
0
100
AcDbBlockBegin
  2
*U19
 70
     1
 10
0.0
 20
0.0
 30
0.0
  3
*U19
  1

  0
LINE
  5
5B0
330
5AE
100
AcDbEntity
  8
1
  6
SOLID
 62
     1
100
AcDbLine
 10
-7930.555664063
 20
5638.849609375
 30
0.0
 11
-7926.856445313
 21
5635.150390625
 31
0.0
  0
LINE
  5
5B1
330
5AE
100
AcDbEntity
  8
1
  6
SOLID
 62
     1
100
AcDbLine
 10
-7925.309570313
 20
5637.138671875
 30
0.0
 11
-7928.607421875
 21
5640.4375
 31
0.0
  0
LINE
  5
5B2
330
5AE
100
AcDbEntity
  8
1
  6
SOLID
 62
     1
100
AcDbLine
 10
-7928.677734375
 20
5644.04296875
 30
0.0
 11
-7924.536132813
 21
5639.901367188
 31
0.0
  0
LINE
  5
5B3
330
5AE
100
AcDbEntity
  8
1
  6
SOLID
 62
     1
100
AcDbLine
 10
-7921.249023438
 20
5640.150390625
 30
0.0
 11
-7925.48828125
 21
5644.388671875
 31
0.0
  0
LINE
  5
5B4
330
5AE
100
AcDbEntity
  8
1
  6
SOLID
 62
     1
100
AcDbLine
 10
-7921.954101563
 20
5644.389648438
 30
0.0
 11
-7917.713867188
 21
5640.150390625
 31
0.0
  0
LINE
  5
5B5
330
5AE
100
AcDbEntity
  8
1
  6
SOLID
 62
     1
100
AcDbLine
 10
-7914.178710938
 20
5640.150390625
 30
0.0
 11
-7918.41796875
 21
5644.389648438
 31
0.0
  0
LINE
  5
5B6
330
5AE
100
AcDbEntity
  8
1
  6
SOLID
 62
     1
100
AcDbLine
 10
-7914.8828125
 20
5644.389648438
 30
0.0
 11
-7911.37109375
 21
5640.877929688
 31
0.0
  0
ENDBLK
  5
7BC
330
5AE
100
AcDbEntity
  8
0
100
AcDbBlockEnd
  0
BLOCK
  5
7BD
330
5B9
100
AcDbEntity
  8
0
100
AcDbBlockBegin
  2
*U20
 70
     1
 10
0.0
 20
0.0
 30
0.0
  3
*U20
  1

  0
LINE
  5
5BB
330
5B9
100
AcDbEntity
  8
1
  6
SOLID
 62
     1
100
AcDbLine
 10
-7930.432617188
 20
5628.120117188
 30
0.0
 11
-7928.22265625
 21
5625.91015625
 31
0.0
  0
LINE
  5
5BC
330
5B9
100
AcDbEntity
  8
1
  6
SOLID
 62
     1
100
AcDbLine
 10
-7924.686523438
 20
5625.91015625
 30
0.0
 11
-7929.356445313
 21
5630.579101563
 31
0.0
  0
LINE
  5
5BD
330
5B9
100
AcDbEntity
  8
1
  6
SOLID
 62
     1
100
AcDbLine
 10
-7929.705078125
 20
5634.462890625
 30
0.0
 11
-7921.151367188
 21
5625.91015625
 31
0.0
  0
LINE
  5
5BE
330
5B9
100
AcDbEntity
  8
1
  6
SOLID
 62
     1
100
AcDbLine
 10
-7917.616210938
 20
5625.91015625
 30
0.0
 11
-7921.856445313
 21
5630.150390625
 31
0.0
  0
LINE
  5
5BF
330
5B9
100
AcDbEntity
  8
1
  6
SOLID
 62
     1
100
AcDbLine
 10
-7925.30859375
 20
5633.602539063
 30
0.0
 11
-7926.856445313
 21
5635.150390625
 31
0.0
  0
LINE
  5
5C0
330
5B9
100
AcDbEntity
  8
1
  6
SOLID
 62
     1
100
AcDbLine
 10
-7918.321289063
 20
5630.150390625
 30
0.0
 11
-7914.080078125
 21
5625.91015625
 31
0.0
  0
LINE
  5
5C1
330
5B9
100
AcDbEntity
  8
1
  6
SOLID
 62
     1
100
AcDbLine
 10
-7911.450195313
 20
5626.815429688
 30
0.0
 11
-7914.78515625
 21
5630.150390625
 31
0.0
  0
ENDBLK
  5
7BE
330
5B9
100
AcDbEntity
  8
0
100
AcDbBlockEnd
  0
BLOCK
  5
7BF
330
618
100
AcDbEntity
  8
0
100
AcDbBlockBegin
  2
*D21
 70
     1
 10
0.0
 20
0.0
 30
0.0
  3
*D21
  1

  0
LINE
  5
61A
330
618
100
AcDbEntity
  8
1
  6
SOLID
 62
     7
100
AcDbLine
 10
-1393.42590332
 20
423.749023438
 30
0.0
 11
-1393.42590332
 21
367.509521484
 31
0.0
  0
LINE
  5
61B
330
618
100
AcDbEntity
  8
1
  6
SOLID
 62
     7
100
AcDbLine
 10
-1133.426025391
 20
423.749023438
 30
0.0
 11
-1133.426025391
 21
367.509521484
 31
0.0
  0
LINE
  5
61C
330
618
100
AcDbEntity
  8
1
  6
SOLID
 62
     7
100
AcDbLine
 10
-1393.42590332
 20
368.509521484
 30
0.0
 11
-1133.426025391
 21
368.509521484
 31
0.0
  0
LINE
  5
61D
330
618
100
AcDbEntity
  8
1
  6
SOLID
 62
     7
100
AcDbLine
 10
-1382.42590332
 20
370.342681885
 30
0.0
 11
-1393.42590332
 21
368.509521484
 31
0.0
  0
LINE
  5
61E
330
618
100
AcDbEntity
  8
1
  6
SOLID
 62
     7
100
AcDbLine
 10
-1393.42590332
 20
368.509521484
 30
0.0
 11
-1382.42590332
 21
366.676361084
 31
0.0
  0
LINE
  5
61F
330
618
100
AcDbEntity
  8
1
  6
SOLID
 62
     7
100
AcDbLine
 10
-1382.42590332
 20
366.676361084
 30
0.0
 11
-1382.42590332
 21
370.342681885
 31
0.0
  0
LINE
  5
620
330
618
100
AcDbEntity
  8
1
  6
SOLID
 62
     7
100
AcDbLine
 10
-1133.426025391
 20
368.509521484
 30
0.0
 11
-1393.42590332
 21
368.509521484
 31
0.0
  0
LINE
  5
621
330
618
100
AcDbEntity
  8
1
  6
SOLID
 62
     7
100
AcDbLine
 10
-1144.426025391
 20
366.676361084
 30
0.0
 11
-1133.426025391
 21
368.509521484
 31
0.0
  0
LINE
  5
622
330
618
100
AcDbEntity
  8
1
  6
SOLID
 62
     7
100
AcDbLine
 10
-1133.426025391
 20
368.509521484
 30
0.0
 11
-1144.426025391
 21
370.342681885
 31
0.0
  0
LINE
  5
623
330
618
100
AcDbEntity
  8
1
  6
SOLID
 62
     7
100
AcDbLine
 10
-1144.426025391
 20
370.342681885
 30
0.0
 11
-1144.426025391
 21
366.676361084
 31
0.0
  0
TEXT
  5
624
330
618
100
AcDbEntity
  8
1
  6
SOLID
 62
     7
100
AcDbText
 10
-1276.349365234
 20
374.009521484
 30
0.0
 40
11.0
  1
264
 41
0.8800345535240062
 72
     5
 11
-1250.502750397
 21
374.009521484
 31
0.0
100
AcDbText
  0
ENDBLK
  5
7C0
330
618
100
AcDbEntity
  8
0
100
AcDbBlockEnd
  0
BLOCK
  5
7C1
330
74F
100
AcDbEntity
  8
0
100
AcDbBlockBegin
  2
*D22
 70
     1
 10
0.0
 20
0.0
 30
0.0
  3
*D22
  1

  0
LINE
  5
751
330
74F
100
AcDbEntity
  8
1
  6
SOLID
 62
     7
100
AcDbLine
 10
-1416.997314453
 20
424.749023438
 30
0.0
 11
-1576.086303711
 21
424.749023438
 31
0.0
  0
LINE
  5
752
330
74F
100
AcDbEntity
  8
1
  6
SOLID
 62
     7
100
AcDbLine
 10
-1554.817260742
 20
604.749023438
 30
0.0
 11
-1576.086303711
 21
604.749023438
 31
0.0
  0
LINE
  5
753
330
74F
100
AcDbEntity
  8
1
  6
SOLID
 62
     7
100
AcDbLine
 10
-1574.514892578
 20
424.749023438
 30
0.0
 11
-1574.514892578
 21
604.749023438
 31
0.0
  0
LINE
  5
754
330
74F
100
AcDbEntity
  8
1
  6
SOLID
 62
     7
100
AcDbLine
 10
-1576.348022461
 20
435.749023438
 30
0.0
 11
-1574.514892578
 21
424.749023438
 31
0.0
  0
LINE
  5
755
330
74F
100
AcDbEntity
  8
1
  6
SOLID
 62
     7
100
AcDbLine
 10
-1574.514892578
 20
424.749023438
 30
0.0
 11
-1572.681762695
 21
435.749023438
 31
0.0
  0
LINE
  5
756
330
74F
100
AcDbEntity
  8
1
  6
SOLID
 62
     7
100
AcDbLine
 10
-1572.681762695
 20
435.749023438
 30
0.0
 11
-1576.348022461
 21
435.749023438
 31
0.0
  0
LINE
  5
757
330
74F
100
AcDbEntity
  8
1
  6
SOLID
 62
     7
100
AcDbLine
 10
-1574.514892578
 20
604.749023438
 30
0.0
 11
-1574.514892578
 21
424.749023438
 31
0.0
  0
LINE
  5
758
330
74F
100
AcDbEntity
  8
1
  6
SOLID
 62
     7
100
AcDbLine
 10
-1572.681762695
 20
593.749023438
 30
0.0
 11
-1574.514892578
 21
604.749023438
 31
0.0
  0
LINE
  5
759
330
74F
100
AcDbEntity
  8
1
  6
SOLID
 62
     7
100
AcDbLine
 10
-1574.514892578
 20
604.749023438
 30
0.0
 11
-1576.348022461
 21
593.749023438
 31
0.0
  0
LINE
  5
75A
330
74F
100
AcDbEntity
  8
1
  6
SOLID
 62
     7
100
AcDbLine
 10
-1576.348022461
 20
593.749023438
 30
0.0
 11
-1572.681762695
 21
593.749023438
 31
0.0
  0
TEXT
  5
75B
330
74F
100
AcDbEntity
  8
1
  6
SOLID
 62
     7
100
AcDbText
 10
-1580.014892578
 20
501.825714111
 30
0.0
 40
11.0
  1
180
 50
90.00000250494067
 41
1.082807492165897
 72
     5
 11
-1580.014893708
 21
527.672328949
 31
0.0
100
AcDbText
  0
ENDBLK
  5
7C2
330
74F
100
AcDbEntity
  8
0
100
AcDbBlockEnd
  0
ENDSEC
  0
SECTION
  2
ENTITIES
  0
DIMENSION
  5
5F
330
1F
100
AcDbEntity
  8
1
  6
SOLID
 62
     7
100
AcDbDimension
  2
*D0
 10
-1133.426025391
 20
368.509521484
 30
0.0
 11
-1098.807739258
 21
374.009521484
 31
0.0
 70
    32
  1
  106   
 71
     5
 42
-1.0
  3
2
100
AcDbAlignedDimension
 13
-1037.42565918
 23
584.229248047
 33
0.0
 14
-1133.426025391
 24
424.749023438
 34
0.0
100
AcDbRotatedDimension
  0
INSERT
  5
69
330
1F
100
AcDbEntity
  8
1
100
AcDbBlockReference
  2
*U1
 10
0.0
 20
0.0
 30
0.0
  0
LINE
  5
6A
330
1F
100
AcDbEntity
  8
1
  6
SOLID
 62
     7
100
AcDbLine
 10
-1137.425948355
 20
169.749023438
 30
0.0
 11
-1110.425963613
 21
169.749023438
 31
0.0
  0
LINE
  5
7C9
330
1F
100
AcDbEntity
  8
1
  6
SOLID
 62
     7
100
AcDbLine
 10
-1403.425948355
 20
604.748967785
 30
0.0
 11
-1403.425948355
 21
744.748995611
 31
0.0
  0
DIMENSION
  5
7B
330
1F
100
AcDbEntity
  8
1
  6
SOLID
 62
     7
100
AcDbDimension
  2
*D2
 10
-1097.42565918
 20
774.696899414
 30
0.0
 11
-1050.348999023
 21
780.196899414
 31
0.0
 70
    32
 71
     5
 42
-1.0
  3
3
100
AcDbAlignedDimension
 13
-977.42565918
 23
726.749023438
 33
0.0
 14
-1097.42565918
 24
726.749023438
 34
0.0
100
AcDbRotatedDimension
  0
MTEXT
  5
7C
330
1F
100
AcDbEntity
  8
1
  6
SOLID
 62
     7
100
AcDbMText
 10
-747.727233887
 20
223.402008057
 30
0.0
 40
18.0
 41
0.0
 71
     1
 72
     5
  1
\f|b0|i0|c177|p0;G-300 L0
 73
     1
 44
1.0
  0
LINE
  5
7D
330
1F
100
AcDbEntity
  8
1
  6
SOLID
 62
     7
100
AcDbLine
 10
-1110.425963613
 20
469.749048572
 30
0.0
 11
-1110.425963613
 21
604.749023438
 31
0.0
  0
LINE
  5
7E
330
1F
100
AcDbEntity
  8
1
  6
SOLID
 62
     7
100
AcDbLine
 10
-1338.425993356
 20
472.749111997
 30
0.0
 11
-1342.425948355
 21
472.749111997
 31
0.0
  0
LINE
  5
7F
330
1F
100
AcDbEntity
  8
1
  6
SOLID
 62
     7
100
AcDbLine
 10
-1478.425991852
 20
788.749045624
 30
0.0
 11
-1478.425991852
 21
783.749045624
 31
0.0
  0
LINE
  5
80
330
1F
100
AcDbEntity
  8
1
  6
SOLID
 62
     7
100
AcDbLine
 10
-1416.304671508
 20
777.62772528
 30
0.0
 11
-1421.547312196
 21
782.870365967
 31
0.0
  0
LINE
  5
81
330
1F
100
AcDbEntity
  8
1
  6
SOLID
 62
     7
100
AcDbLine
 10
-1412.769137603
 20
781.163259186
 30
0.0
 11
-1418.01177829
 21
786.405899873
 31
0.0
  0
LINE
  5
83
330
1F
100
AcDbEntity
  8
1
  6
CENTER
 62
     7
100
AcDbLine
 10
-704.873770738
 20
723.749101156
 30
0.0
 11
-730.745667071
 21
723.749101156
 31
0.0
  0
LINE
  5
84
330
1F
100
AcDbEntity
  8
1
  6
CENTER
 62
     7
100
AcDbLine
 10
-718.188534898
 20
709.72768031
 30
0.0
 11
-718.188534898
 21
739.071079442
 31
0.0
  0
CIRCLE
  5
85
330
1F
100
AcDbEntity
  8
1
  6
SOLID
 62
     7
100
AcDbCircle
 10
-718.188534898
 20
723.749101156
 30
0.0
 40
4.199999809
  0
LINE
  5
86
330
1F
100
AcDbEntity
  8
1
  6
CENTER
 62
     7
100
AcDbLine
 10
-1044.425655407
 20
671.749023437
 30
0.0
 11
-1044.425655407
 21
604.749023438
 31
0.0
  0
LINE
  5
87
330
1F
100
AcDbEntity
  8
1
  6
CENTER
 62
     7
100
AcDbLine
 10
-1058.425655407
 20
671.749023437
 30
0.0
 11
-1058.425655407
 21
604.749023438
 31
0.0
  0
LINE
  5
88
330
1F
100
AcDbEntity
  8
1
  6
CENTER
 62
     7
100
AcDbLine
 10
-1072.425655407
 20
671.749023437
 30
0.0
 11
-1072.425655407
 21
604.749023438
 31
0.0
  0
LINE
  5
89
330
1F
100
AcDbEntity
  8
1
  6
SOLID
 62
     7
100
AcDbLine
 10
-1265.750096945
 20
679.749028821
 30
0.0
 11
-1188.425948355
 21
679.749028821
 31
0.0
  0
LINE
  5
8A
330
1F
100
AcDbEntity
  8
1
  6
SOLID
 62
     7
100
AcDbLine
 10
-1188.425948355
 20
771.748998303
 30
0.0
 11
-1188.425948355
 21
721.749023438
 31
0.0
  0
LINE
  5
8B
330
1F
100
AcDbEntity
  8
1
  6
CENTER
 62
     7
100
AcDbLine
 10
-1086.425655407
 20
671.749023437
 30
0.0
 11
-1086.425655407
 21
604.749023438
 31
0.0
  0
LINE
  5
8C
330
1F
100
AcDbEntity
  8
1
  6
CENTER
 62
     7
100
AcDbLine
 10
-1030.425655407
 20
671.749023437
 30
0.0
 11
-1030.425655407
 21
604.749023438
 31
0.0
  0
LINE
  5
8D
330
1F
100
AcDbEntity
  8
1
  6
CENTER
 62
     7
100
AcDbLine
 10
-1016.425655407
 20
671.749023437
 30
0.0
 11
-1016.425655407
 21
604.749023438
 31
0.0
  0
LINE
  5
8E
330
1F
100
AcDbEntity
  8
1
  6
SOLID
 62
     7
100
AcDbLine
 10
-1265.750096945
 20
739.470399928
 30
0.0
 11
-1188.425948355
 21
739.470399928
 31
0.0
  0
LINE
  5
8F
330
1F
100
AcDbEntity
  8
1
  6
SOLID
 62
     7
100
AcDbLine
 10
-1265.750096945
 20
748.868233866
 30
0.0
 11
-1188.425948355
 21
748.868233866
 31
0.0
  0
LINE
  5
90
330
1F
100
AcDbEntity
  8
1
  6
SOLID
 62
     7
100
AcDbLine
 10
-1265.750096945
 20
756.15003768
 30
0.0
 11
-1188.425948355
 21
756.15003768
 31
0.0
  0
LINE
  5
91
330
1F
100
AcDbEntity
  8
1
  6
SOLID
 62
     7
100
AcDbLine
 10
-1265.750096945
 20
761.845714829
 30
0.0
 11
-1188.425948355
 21
761.845714829
 31
0.0
  0
LINE
  5
7CA
330
1F
100
AcDbEntity
  8
1
  6
SOLID
 62
     7
100
AcDbLine
 10
-1265.750096945
 20
766.169856702
 30
0.0
 11
-1188.425948355
 21
766.169856702
 31
0.0
  0
LINE
  5
7CB
330
1F
100
AcDbEntity
  8
1
  6
SOLID
 62
     7
100
AcDbLine
 10
-1265.750096945
 20
769.097081309
 30
0.0
 11
-1188.425948355
 21
769.097081309
 31
0.0
  0
LINE
  5
94
330
1F
100
AcDbEntity
  8
1
  6
SOLID
 62
     7
100
AcDbLine
 10
-1265.750096945
 20
771.097081309
 30
0.0
 11
-1188.425948355
 21
771.097081309
 31
0.0
  0
LINE
  5
95
330
1F
100
AcDbEntity
  8
1
  6
SOLID
 62
     7
100
AcDbLine
 10
-1265.750096945
 20
771.797081319
 30
0.0
 11
-1188.425948355
 21
771.797081319
 31
0.0
  0
LINE
  5
96
330
1F
100
AcDbEntity
  8
1
  6
SOLID
 62
     7
100
AcDbLine
 10
-1265.750096945
 20
529.749018054
 30
0.0
 11
-1188.425948355
 21
529.749018054
 31
0.0
  0
LINE
  5
7CC
330
1F
100
AcDbEntity
  8
1
  6
SOLID
 62
     7
100
AcDbLine
 10
-1265.750096945
 20
492.149027547
 30
0.0
 11
-1188.425948355
 21
492.149027547
 31
0.0
  0
LINE
  5
7CD
330
1F
100
AcDbEntity
  8
1
  6
SOLID
 62
     7
100
AcDbLine
 10
-1265.750096945
 20
470.027646947
 30
0.0
 11
-1188.425948355
 21
470.027646947
 31
0.0
  0
LINE
  5
7CE
330
1F
100
AcDbEntity
  8
1
  6
SOLID
 62
     7
100
AcDbLine
 10
-1265.750096945
 20
460.629813009
 30
0.0
 11
-1188.425948355
 21
460.629813009
 31
0.0
  0
LINE
  5
7CF
330
1F
100
AcDbEntity
  8
1
  6
SOLID
 62
     7
100
AcDbLine
 10
-1265.750096945
 20
453.348009195
 30
0.0
 11
-1188.425948355
 21
453.348009195
 31
0.0
  0
LINE
  5
7D0
330
1F
100
AcDbEntity
  8
1
  6
SOLID
 62
     7
100
AcDbLine
 10
-1265.750096945
 20
447.652332046
 30
0.0
 11
-1188.425948355
 21
447.652332046
 31
0.0
  0
LINE
  5
7D1
330
1F
100
AcDbEntity
  8
1
  6
CENTER
 62
     7
100
AcDbLine
 10
-1002.425655407
 20
671.749023437
 30
0.0
 11
-1002.425655407
 21
604.749023438
 31
0.0
  0
LINE
  5
7D2
330
1F
100
AcDbEntity
  8
1
  6
CENTER
 62
     7
100
AcDbLine
 10
-988.425655407
 20
671.749023437
 30
0.0
 11
-988.425655407
 21
604.749023438
 31
0.0
  0
LINE
  5
7D3
330
1F
100
AcDbEntity
  8
1
  6
CENTER
 62
     7
100
AcDbLine
 10
-1030.425655407
 20
537.749023438
 30
0.0
 11
-1030.425655407
 21
604.749023438
 31
0.0
  0
LINE
  5
7D4
330
1F
100
AcDbEntity
  8
1
  6
CENTER
 62
     7
100
AcDbLine
 10
-1016.425655407
 20
537.749023438
 30
0.0
 11
-1016.425655407
 21
604.749023438
 31
0.0
  0
LINE
  5
7D5
330
1F
100
AcDbEntity
  8
1
  6
CENTER
 62
     7
100
AcDbLine
 10
-1002.425655407
 20
537.749023438
 30
0.0
 11
-1002.425655407
 21
604.749023438
 31
0.0
  0
LINE
  5
7D6
330
1F
100
AcDbEntity
  8
1
  6
CENTER
 62
     7
100
AcDbLine
 10
-988.425655407
 20
537.749023438
 30
0.0
 11
-988.425655407
 21
604.749023438
 31
0.0
  0
LINE
  5
7D7
330
1F
100
AcDbEntity
  8
1
  6
CENTER
 62
     7
100
AcDbLine
 10
-1044.425655407
 20
537.749023438
 30
0.0
 11
-1044.425655407
 21
604.749023438
 31
0.0
  0
LINE
  5
7D8
330
1F
100
AcDbEntity
  8
1
  6
CENTER
 62
     7
100
AcDbLine
 10
-1058.425655407
 20
537.749023438
 30
0.0
 11
-1058.425655407
 21
604.749023438
 31
0.0
  0
LINE
  5
7D9
330
1F
100
AcDbEntity
  8
1
  6
CENTER
 62
     7
100
AcDbLine
 10
-1072.425655407
 20
537.749023438
 30
0.0
 11
-1072.425655407
 21
604.749023438
 31
0.0
  0
LINE
  5
7DA
330
1F
100
AcDbEntity
  8
1
  6
CENTER
 62
     7
100
AcDbLine
 10
-1086.425655407
 20
537.749023438
 30
0.0
 11
-1086.425655407
 21
604.749023438
 31
0.0
  0
LINE
  5
7DB
330
1F
100
AcDbEntity
  8
1
  6
SOLID
 62
     7
100
AcDbLine
 10
-1188.425972955
 20
736.749053955
 30
0.0
 11
-1184.425972955
 21
736.749053955
 31
0.0
  0
LINE
  5
7DC
330
1F
100
AcDbEntity
  8
1
  6
SOLID
 62
     7
100
AcDbLine
 10
-1205.425991852
 20
830.749005613
 30
0.0
 11
-1205.425991852
 21
854.749005613
 31
0.0
  0
LINE
  5
7DD
330
1F
100
AcDbEntity
  8
1
  6
SOLID
 62
     7
100
AcDbLine
 10
-1205.425991852
 20
854.749005613
 30
0.0
 11
-1210.425991852
 21
854.749005613
 31
0.0
  0
LINE
  5
7DE
330
1F
100
AcDbEntity
  8
1
  6
SOLID
 62
     7
100
AcDbLine
 10
-1205.425991852
 20
830.749005613
 30
0.0
 11
-1210.425991852
 21
830.749005613
 31
0.0
  0
LINE
  5
7DF
330
1F
100
AcDbEntity
  8
1
  6
SOLID
 62
     7
100
AcDbLine
 10
-1202.425991852
 20
852.749005613
 30
0.0
 11
-1205.425991852
 21
852.749005613
 31
0.0
  0
LINE
  5
7E0
330
1F
100
AcDbEntity
  8
1
  6
SOLID
 62
     7
100
AcDbLine
 10
-1202.425991852
 20
832.749005613
 30
0.0
 11
-1205.425991852
 21
832.749005613
 31
0.0
  0
LINE
  5
7E1
330
1F
100
AcDbEntity
  8
1
  6
SOLID
 62
     7
100
AcDbLine
 10
-1202.425991852
 20
830.749005613
 30
0.0
 11
-1202.425991852
 21
854.749005613
 31
0.0
  0
LINE
  5
7E2
330
1F
100
AcDbEntity
  8
1
  6
SOLID
 62
     7
100
AcDbLine
 10
-1189.425991852
 20
830.749005613
 30
0.0
 11
-1189.425991852
 21
854.749005613
 31
0.0
  0
LINE
  5
7E3
330
1F
100
AcDbEntity
  8
1
  6
SOLID
 62
     7
100
AcDbLine
 10
-1189.425991852
 20
854.749005613
 30
0.0
 11
-1202.425991852
 21
854.749005613
 31
0.0
  0
LINE
  5
7E4
330
1F
100
AcDbEntity
  8
1
  6
SOLID
 62
     7
100
AcDbLine
 10
-1189.425991852
 20
830.749005613
 30
0.0
 11
-1202.425991852
 21
830.749005613
 31
0.0
  0
LINE
  5
7E5
330
1F
100
AcDbEntity
  8
1
  6
SOLID
 62
     7
100
AcDbLine
 10
-1186.425991852
 20
853.749005613
 30
0.0
 11
-1189.425991852
 21
853.749005613
 31
0.0
  0
LINE
  5
7E6
330
1F
100
AcDbEntity
  8
1
  6
SOLID
 62
     7
100
AcDbLine
 10
-1186.425991852
 20
831.749005613
 30
0.0
 11
-1189.425991852
 21
831.749005613
 31
0.0
  0
LINE
  5
7E7
330
1F
100
AcDbEntity
  8
1
  6
SOLID
 62
     7
100
AcDbLine
 10
-1183.425991852
 20
834.749005613
 30
0.0
 11
-1183.425991852
 21
850.749005613
 31
0.0
  0
ARC
  5
7E8
330
1F
100
AcDbEntity
  8
1
  6
SOLID
 62
     7
100
AcDbCircle
 10
-1186.425991852
 20
850.749005613
 30
0.0
 40
3.0
100
AcDbArc
 50
0.0
 51
90.0
  0
LINE
  5
7E9
330
1F
100
AcDbEntity
  8
1
  6
SOLID
 62
     7
100
AcDbLine
 10
-1104.425963613
 20
604.749023438
 30
0.0
 11
-1104.425963613
 21
671.749023437
 31
0.0
  0
ARC
  5
7EA
330
1F
100
AcDbEntity
  8
1
  6
SOLID
 62
     7
100
AcDbCircle
 10
-1186.425991852
 20
834.749005613
 30
0.0
 40
3.0
100
AcDbArc
 50
270.0
 51
0.0
  0
LINE
  5
7EB
330
1F
100
AcDbEntity
  8
1
  6
CENTER
 62
     7
100
AcDbLine
 10
-1181.20541466
 20
842.749005613
 30
0.0
 11
-1189.425991852
 21
842.749005613
 31
0.0
  0
LINE
  5
7EC
330
1F
100
AcDbEntity
  8
1
  6
SOLID
 62
     7
100
AcDbLine
 10
-1189.425991852
 20
842.749005613
 30
0.0
 11
-1202.425991852
 21
842.749005613
 31
0.0
  0
LINE
  5
7ED
330
1F
100
AcDbEntity
  8
1
  6
CENTER
 62
     7
100
AcDbLine
 10
-1202.425991852
 20
842.749005613
 30
0.0
 11
-1205.425991852
 21
842.749005613
 31
0.0
  0
LINE
  5
7EE
330
1F
100
AcDbEntity
  8
1
  6
SOLID
 62
     7
100
AcDbLine
 10
-1205.425991852
 20
842.749005613
 30
0.0
 11
-1210.425991852
 21
842.749005613
 31
0.0
  0
LINE
  5
7EF
330
1F
100
AcDbEntity
  8
1
  6
SOLID
 62
     7
100
AcDbLine
 10
-1204.425991852
 20
819.749005613
 30
0.0
 11
-1204.425991852
 21
827.749005613
 31
0.0
  0
LINE
  5
BB
330
1F
100
AcDbEntity
  8
1
  6
SOLID
 62
     7
100
AcDbLine
 10
-1204.425991852
 20
827.749005613
 30
0.0
 11
-1210.425991852
 21
827.749005613
 31
0.0
  0
LINE
  5
BC
330
1F
100
AcDbEntity
  8
1
  6
SOLID
 62
     7
100
AcDbLine
 10
-1204.425991852
 20
791.749005613
 30
0.0
 11
-1210.425991852
 21
791.749005613
 31
0.0
  0
LINE
  5
BD
330
1F
100
AcDbEntity
  8
1
  6
SOLID
 62
     7
100
AcDbLine
 10
-1201.425991852
 20
821.749005613
 30
0.0
 11
-1201.425991852
 21
827.749005613
 31
0.0
  0
LINE
  5
BE
330
1F
100
AcDbEntity
  8
1
  6
SOLID
 62
     7
100
AcDbLine
 10
-1186.425991852
 20
827.749005613
 30
0.0
 11
-1201.425991852
 21
827.749005613
 31
0.0
  0
LINE
  5
BF
330
1F
100
AcDbEntity
  8
1
  6
SOLID
 62
     7
100
AcDbLine
 10
-1186.425991852
 20
791.749005613
 30
0.0
 11
-1201.425991852
 21
791.749005613
 31
0.0
  0
LINE
  5
C0
330
1F
100
AcDbEntity
  8
1
  6
SOLID
 62
     7
100
AcDbLine
 10
-1186.425991852
 20
820.749005613
 30
0.0
 11
-1186.425991852
 21
827.749005613
 31
0.0
  0
ARC
  5
C1
330
1F
100
AcDbEntity
  8
1
  6
SOLID
 62
     7
100
AcDbCircle
 10
-718.188534898
 20
723.749101156
 30
0.0
 40
5.0
100
AcDbArc
 50
20.0
 51
320.0
  0
LINE
  5
C2
330
1F
100
AcDbEntity
  8
1
  6
SOLID
 62
     7
100
AcDbLine
 10
-1180.425991852
 20
796.249005613
 30
0.0
 11
-1180.425991852
 21
823.249005613
 31
0.0
  0
LINE
  5
C3
330
1F
100
AcDbEntity
  8
1
  6
CENTER
 62
     7
100
AcDbLine
 10
-662.873770738
 20
723.749101156
 30
0.0
 11
-685.174754078
 21
723.749101156
 31
0.0
  0
LINE
  5
C4
330
1F
100
AcDbEntity
  8
1
  6
SOLID
 62
     7
100
AcDbLine
 10
-1183.425991852
 20
826.249005613
 30
0.0
 11
-1186.425991852
 21
826.249005613
 31
0.0
  0
LINE
  5
C5
330
1F
100
AcDbEntity
  8
1
  6
SOLID
 62
     7
100
AcDbLine
 10
-1183.425991852
 20
793.249005613
 30
0.0
 11
-1186.425991852
 21
793.249005613
 31
0.0
  0
LINE
  5
C6
330
1F
100
AcDbEntity
  8
1
  6
SOLID
 62
     7
100
AcDbLine
 10
-971.425963613
 20
684.749023437
 30
0.0
 11
-972.425963613
 21
685.749023437
 31
0.0
  0
LINE
  5
C7
330
1F
100
AcDbEntity
  8
1
  6
SOLID
 62
     7
100
AcDbLine
 10
-971.425963613
 20
672.749023437
 30
0.0
 11
-972.425963613
 21
671.749023437
 31
0.0
  0
ARC
  5
C8
330
1F
100
AcDbEntity
  8
1
  6
SOLID
 62
     7
100
AcDbCircle
 10
-1183.425991852
 20
796.249005613
 30
0.0
 40
3.0
100
AcDbArc
 50
270.0
 51
0.0
  0
LINE
  5
C9
330
1F
100
AcDbEntity
  8
1
  6
SOLID
 62
     7
100
AcDbLine
 10
-971.425963613
 20
524.749023438
 30
0.0
 11
-972.425963613
 21
523.749023438
 31
0.0
  0
LINE
  5
CA
330
1F
100
AcDbEntity
  8
1
  6
SOLID
 62
     7
100
AcDbLine
 10
-971.425963613
 20
536.749023438
 30
0.0
 11
-972.425963613
 21
537.749023438
 31
0.0
  0
ARC
  5
CB
330
1F
100
AcDbEntity
  8
1
  6
SOLID
 62
     7
100
AcDbCircle
 10
-1183.425991852
 20
823.249005613
 30
0.0
 40
3.0
100
AcDbArc
 50
0.0
 51
90.0
  0
LINE
  5
CC
330
1F
100
AcDbEntity
  8
1
  6
SOLID
 62
     7
100
AcDbLine
 10
-1201.425991852
 20
826.249005613
 30
0.0
 11
-1204.425991852
 21
826.249005613
 31
0.0
  0
LINE
  5
CD
330
1F
100
AcDbEntity
  8
1
  6
SOLID
 62
     7
100
AcDbLine
 10
-1201.425991852
 20
793.249005613
 30
0.0
 11
-1204.425991852
 21
793.249005613
 31
0.0
  0
LINE
  5
CE
330
1F
100
AcDbEntity
  8
1
  6
CENTER
 62
     7
100
AcDbLine
 10
-1168.304339296
 20
809.749005613
 30
0.0
 11
-1186.425991852
 21
809.749005613
 31
0.0
  0
LINE
  5
CF
330
1F
100
AcDbEntity
  8
1
  6
CENTER
 62
     7
100
AcDbLine
 10
-676.188534898
 20
709.72768031
 30
0.0
 11
-676.188534898
 21
739.071079442
 31
0.0
  0
CIRCLE
  5
D0
330
1F
100
AcDbEntity
  8
1
  6
SOLID
 62
     7
100
AcDbCircle
 10
-676.188534898
 20
723.749101156
 30
0.0
 40
4.199999809
  0
ARC
  5
D1
330
1F
100
AcDbEntity
  8
1
  6
SOLID
 62
     7
100
AcDbCircle
 10
-676.188534898
 20
723.749101156
 30
0.0
 40
5.0
100
AcDbArc
 50
20.0
 51
320.0
  0
ARC
  5
D2
330
1F
100
AcDbEntity
  8
1
  6
SOLID
 62
     7
100
AcDbCircle
 10
-734.688534898
 20
459.749101156
 30
0.0
 40
5.0
100
AcDbArc
 50
0.0
 51
90.0
  0
LINE
  5
D3
330
1F
100
AcDbEntity
  8
1
  6
SOLID
 62
     7
100
AcDbLine
 10
-599.688534898
 20
464.749101156
 30
0.0
 11
-464.688534898
 21
464.749101156
 31
0.0
  0
ARC
  5
D4
330
1F
100
AcDbEntity
  8
1
  6
SOLID
 62
     7
100
AcDbCircle
 10
-464.688534898
 20
469.749101156
 30
0.0
 40
5.0
100
AcDbArc
 50
270.0
 51
0.0
  0
LINE
  5
D5
330
1F
100
AcDbEntity
  8
1
  6
SOLID
 62
     7
100
AcDbLine
 10
-512.749224669
 20
464.749101156
 30
0.0
 11
-478.685815428
 21
464.749101156
 31
0.0
  0
LINE
  5
D7
330
1F
100
AcDbEntity
  8
1
  6
L_DASH
 62
     7
100
AcDbLine
 10
-493.188534898
 20
464.749101156
 30
0.0
 11
-493.188534898
 21
424.749101156
 31
0.0
  0
ARC
  5
D8
330
1F
100
AcDbEntity
  8
1
  6
SOLID
 62
     7
100
AcDbCircle
 10
-539.688534898
 20
434.749101156
 30
0.0
 40
10.0
100
AcDbArc
 50
0.0
 51
90.0
  0
LINE
  5
D9
330
1F
100
AcDbEntity
  8
1
  6
CENTER
 62
     7
100
AcDbLine
 10
-499.688534898
 20
468.337068411
 30
0.0
 11
-499.688534898
 21
412.697794592
 31
0.0
  0
LINE
  5
DA
330
1F
100
AcDbEntity
  8
1
  6
SOLID
 62
     7
100
AcDbLine
 10
-599.688534898
 20
464.749101156
 30
0.0
 11
-734.688534898
 21
464.749101156
 31
0.0
  0
LINE
  5
DB
330
1F
100
AcDbEntity
  8
1
  6
SOLID
 62
     7
100
AcDbLine
 10
-539.688534898
 20
444.749101156
 30
0.0
 11
-599.688534898
 21
444.749101156
 31
0.0
  0
LINE
  5
DC
330
1F
100
AcDbEntity
  8
1
  6
SOLID
 62
     7
100
AcDbLine
 10
-739.688534898
 20
469.749101156
 30
0.0
 11
-739.688534898
 21
470.749101156
 31
0.0
  0
LINE
  5
DD
330
1F
100
AcDbEntity
  8
1
  6
SOLID
 62
     7
100
AcDbLine
 10
-637.188534898
 20
744.749101156
 30
0.0
 11
-599.688534898
 21
744.749101156
 31
0.0
  0
LINE
  5
DE
330
1F
100
AcDbEntity
  8
1
  6
L_DASH
 62
     7
100
AcDbLine
 10
-491.688534898
 20
464.749101156
 30
0.0
 11
-491.688534898
 21
424.749101156
 31
0.0
  0
LINE
  5
DF
330
1F
100
AcDbEntity
  8
1
  6
L_DASH
 62
     7
100
AcDbLine
 10
-506.188534898
 20
464.749101156
 30
0.0
 11
-506.188534898
 21
424.749101156
 31
0.0
  0
LINE
  5
E0
330
1F
100
AcDbEntity
  8
1
  6
L_DASH
 62
     7
100
AcDbLine
 10
-507.688534898
 20
464.749101156
 30
0.0
 11
-507.688534898
 21
424.749101156
 31
0.0
  0
ARC
  5
E1
330
1F
100
AcDbEntity
  8
1
  6
SOLID
 62
     7
100
AcDbCircle
 10
-464.688534898
 20
459.749101156
 30
0.0
 40
5.0
100
AcDbArc
 50
90.0
 51
180.0
  0
LINE
  5
E2
330
1F
100
AcDbEntity
  8
1
  6
SOLID
 62
     7
100
AcDbLine
 10
-469.688534898
 20
459.749101156
 30
0.0
 11
-469.688534898
 21
424.749101156
 31
0.0
  0
ARC
  5
E3
330
1F
100
AcDbEntity
  8
1
  6
SOLID
 62
     7
100
AcDbCircle
 10
-734.688534898
 20
469.749101156
 30
0.0
 40
5.0
100
AcDbArc
 50
180.0
 51
270.0
  0
LINE
  5
E4
330
1F
100
AcDbEntity
  8
1
  6
SOLID
 62
     7
100
AcDbLine
 10
-664.688534898
 20
782.749045624
 30
0.0
 11
-664.688534898
 21
750.749101156
 31
0.0
  0
LINE
  5
E5
330
1F
100
AcDbEntity
  8
1
  6
SOLID
 62
     7
100
AcDbLine
 10
-469.688534898
 20
424.749101156
 30
0.0
 11
-529.688534898
 21
424.749101156
 31
0.0
  0
LINE
  5
E6
330
1F
100
AcDbEntity
  8
1
  6
SOLID
 62
     7
100
AcDbLine
 10
-529.688534898
 20
434.749101156
 30
0.0
 11
-529.688534898
 21
424.749101156
 31
0.0
  0
ARC
  5
E7
330
1F
100
AcDbEntity
  8
1
  6
SOLID
 62
     7
100
AcDbCircle
 10
-662.688534898
 20
782.749045624
 30
0.0
 40
2.0
100
AcDbArc
 50
90.0
 51
180.0
  0
LINE
  5
E8
330
1F
100
AcDbEntity
  8
1
  6
SOLID
 62
     7
100
AcDbLine
 10
-674.688534898
 20
784.749045624
 30
0.0
 11
-620.117519775
 21
784.749045624
 31
0.0
  0
LINE
  5
E9
330
1F
100
AcDbEntity
  8
1
  6
CENTER
 62
     7
100
AcDbLine
 10
-529.762428862
 20
604.749101156
 30
0.0
 11
-678.721019131
 21
604.749101156
 31
0.0
  0
LINE
  5
EA
330
1F
100
AcDbEntity
  8
1
  6
SOLID
 62
     7
100
AcDbLine
 10
-534.688534898
 20
782.749045624
 30
0.0
 11
-534.688534898
 21
750.749101156
 31
0.0
  0
ARC
  5
EB
330
1F
100
AcDbEntity
  8
1
  6
SOLID
 62
     7
100
AcDbCircle
 10
-536.688534898
 20
782.749045624
 30
0.0
 40
2.0
100
AcDbArc
 50
0.0
 51
90.0
  0
LINE
  5
EC
330
1F
100
AcDbEntity
  8
1
  6
SOLID
 62
     7
100
AcDbLine
 10
-524.688534898
 20
784.749045624
 30
0.0
 11
-579.259550022
 21
784.749045624
 31
0.0
  0
LINE
  5
ED
330
1F
100
AcDbEntity
  8
1
  6
SOLID
 62
     7
100
AcDbLine
 10
-1545.04638162
 20
197.225830565
 30
0.0
 11
-1544.826381612
 21
197.225830565
 31
0.0
  0
LINE
  5
EE
330
1F
100
AcDbEntity
  8
1
  6
CENTER
 62
     7
100
AcDbLine
 10
-699.688534898
 20
468.337068411
 30
0.0
 11
-699.688534898
 21
412.697794592
 31
0.0
  0
LINE
  5
EF
330
1F
100
AcDbEntity
  8
1
  6
SOLID
 62
     7
100
AcDbLine
 10
-686.627845128
 20
464.749101156
 30
0.0
 11
-720.691254368
 21
464.749101156
 31
0.0
  0
LINE
  5
F0
330
1F
100
AcDbEntity
  8
1
  6
L_DASH
 62
     7
100
AcDbLine
 10
-706.188534898
 20
464.749101156
 30
0.0
 11
-706.188534898
 21
424.749101156
 31
0.0
  0
LINE
  5
F1
330
1F
100
AcDbEntity
  8
1
  6
SOLID
 62
     7
100
AcDbLine
 10
-729.688534898
 20
459.749101156
 30
0.0
 11
-729.688534898
 21
424.749101156
 31
0.0
  0
ARC
  5
F2
330
1F
100
AcDbEntity
  8
1
  6
SOLID
 62
     7
100
AcDbCircle
 10
-659.688534898
 20
434.749101156
 30
0.0
 40
10.0
100
AcDbArc
 50
90.0
 51
180.0
  0
LINE
  5
F3
330
1F
100
AcDbEntity
  8
1
  6
SOLID
 62
     7
100
AcDbLine
 10
-669.688534898
 20
434.749101156
 30
0.0
 11
-669.688534898
 21
424.749101156
 31
0.0
  0
LINE
  5
F4
330
1F
100
AcDbEntity
  8
1
  6
SOLID
 62
     7
100
AcDbLine
 10
-729.688534898
 20
424.749101156
 30
0.0
 11
-669.688534898
 21
424.749101156
 31
0.0
  0
LINE
  5
F5
330
1F
100
AcDbEntity
  8
1
  6
CENTER
 62
     7
100
AcDbLine
 10
-699.688534898
 20
468.337068411
 30
0.0
 11
-699.688534898
 21
412.697794592
 31
0.0
  0
LINE
  5
F6
330
1F
100
AcDbEntity
  8
1
  6
SOLID
 62
     7
100
AcDbLine
 10
-659.688534898
 20
444.749101156
 30
0.0
 11
-599.688534898
 21
444.749101156
 31
0.0
  0
LINE
  5
F7
330
1F
100
AcDbEntity
  8
1
  6
L_DASH
 62
     7
100
AcDbLine
 10
-707.688534898
 20
464.749101156
 30
0.0
 11
-707.688534898
 21
424.749101156
 31
0.0
  0
LINE
  5
F8
330
1F
100
AcDbEntity
  8
1
  6
L_DASH
 62
     7
100
AcDbLine
 10
-693.188534898
 20
464.749101156
 30
0.0
 11
-693.188534898
 21
424.749101156
 31
0.0
  0
LINE
  5
F9
330
1F
100
AcDbEntity
  8
1
  6
L_DASH
 62
     7
100
AcDbLine
 10
-691.688534898
 20
464.749101156
 30
0.0
 11
-691.688534898
 21
424.749101156
 31
0.0
  0
DIMENSION
  5
109
330
1F
100
AcDbEntity
  8
1
  6
SOLID
 62
     7
100
AcDbDimension
  2
*D3
 10
-729.688903809
 20
368.709472656
 30
0.0
 11
-612.612182617
 21
374.209472656
 31
0.0
 70
    32
 71
     5
 42
-1.0
  3
4
100
AcDbAlignedDimension
 13
-469.688903809
 23
424.749023438
 33
0.0
 14
-729.688903809
 24
424.749023438
 34
0.0
100
AcDbRotatedDimension
  0
DIMENSION
  5
119
330
1F
100
AcDbEntity
  8
1
  6
SOLID
 62
     7
100
AcDbDimension
  2
*D4
 10
-699.688903809
 20
390.709472656
 30
0.0
 11
-612.612182617
 21
396.209472656
 31
0.0
 70
    32
 71
     5
 42
-1.0
  3
5
100
AcDbAlignedDimension
 13
-499.688903809
 23
412.697753906
 33
0.0
 14
-699.688903809
 24
412.697753906
 34
0.0
100
AcDbRotatedDimension
  0
DIMENSION
  5
129
330
1F
100
AcDbEntity
  8
1
  6
SOLID
 62
     7
100
AcDbDimension
  2
*D5
 10
-669.688903809
 20
412.709472656
 30
0.0
 11
-612.612182617
 21
418.209472656
 31
0.0
 70
    32
 71
     5
 42
-1.0
  3
6
100
AcDbAlignedDimension
 13
-529.688903809
 23
424.749023438
 33
0.0
 14
-669.688903809
 24
424.749023438
 34
0.0
100
AcDbRotatedDimension
  0
DIMENSION
  5
139
330
1F
100
AcDbEntity
  8
1
  6
SOLID
 62
     7
100
AcDbDimension
  2
*D6
 10
-521.416442871
 20
424.749023438
 30
0.0
 11
-523.266418457
 21
442.036071777
 31
0.0
 70
    32
 71
     5
 42
-1.0
  3
7
100
AcDbAlignedDimension
 13
-478.685974121
 23
464.749023438
 33
0.0
 14
-469.688903809
 24
424.749023438
 34
0.0
 50
90.0
100
AcDbRotatedDimension
  0
LINE
  5
13A
330
1F
100
AcDbEntity
  8
1
  6
CENTER
 62
     7
100
AcDbLine
 10
-599.688534898
 20
798.200807342
 30
0.0
 11
-599.688534898
 21
431.756596817
 31
0.0
  0
LINE
  5
13B
330
1F
100
AcDbEntity
  8
1
  6
SOLID
 62
     7
100
AcDbLine
 10
-1186.425991852
 20
809.749005613
 30
0.0
 11
-1201.425991852
 21
809.749005613
 31
0.0
  0
LINE
  5
13C
330
1F
100
AcDbEntity
  8
1
  6
CENTER
 62
     7
100
AcDbLine
 10
-1201.425991852
 20
809.749005613
 30
0.0
 11
-1204.425991852
 21
809.749005613
 31
0.0
  0
LINE
  5
13D
330
1F
100
AcDbEntity
  8
1
  6
SOLID
 62
     7
100
AcDbLine
 10
-1403.425948355
 20
604.749023438
 30
0.0
 11
-1403.425948355
 21
464.748995611
 31
0.0
  0
LINE
  5
13E
330
1F
100
AcDbEntity
  8
1
  6
SOLID
 62
     7
100
AcDbLine
 10
-1265.750096945
 20
492.149027547
 30
0.0
 11
-1188.425948355
 21
492.149027547
 31
0.0
  0
DIMENSION
  5
14E
330
1F
100
AcDbEntity
  8
1
  6
SOLID
 62
     7
100
AcDbDimension
  2
*D7
 10
-1415.42590332
 20
393.977050781
 30
0.0
 11
-1388.258666992
 21
399.477050781
 31
0.0
 70
    32
 71
     5
 42
-1.0
  3
8
100
AcDbAlignedDimension
 13
-1365.42590332
 23
424.749023438
 33
0.0
 14
-1415.42590332
 24
424.749023438
 34
0.0
100
AcDbRotatedDimension
  0
LINE
  5
14F
330
1F
100
AcDbEntity
  8
1
  6
SOLID
 62
     7
100
AcDbLine
 10
-1204.425991852
 20
809.749005613
 30
0.0
 11
-1210.425991852
 21
809.749005613
 31
0.0
  0
LINE
  5
150
330
1F
100
AcDbEntity
  8
1
  6
SOLID
 62
     7
100
AcDbLine
 10
-1106.425963613
 20
685.749023437
 30
0.0
 11
-972.425963613
 21
685.749023437
 31
0.0
  0
DIMENSION
  5
161
330
1F
100
AcDbEntity
  8
1
  6
SOLID
 62
     7
100
AcDbDimension
  2
*D8
 10
-1160.426025391
 20
398.825317383
 30
0.0
 11
-1099.112426758
 21
404.325317383
 31
0.0
 70
    32
 71
     5
 42
-1.0
  3
9
100
AcDbAlignedDimension
 13
-1110.426025391
 23
424.749023438
 33
0.0
 14
-1160.426025391
 24
424.749023438
 34
0.0
100
AcDbRotatedDimension
  0
LINE
  5
162
330
1F
100
AcDbEntity
  8
1
  6
CENTER
 62
     7
100
AcDbLine
 10
-1210.425991852
 20
809.749005613
 30
0.0
 11
-1226.760974994
 21
809.749005613
 31
0.0
  0
LINE
  5
163
330
1F
100
AcDbEntity
  8
1
  6
CENTER
 62
     7
100
AcDbLine
 10
-1210.425991852
 20
842.749005613
 30
0.0
 11
-1225.89248721
 21
842.749005613
 31
0.0
  0
CIRCLE
  5
164
330
1F
100
AcDbEntity
  8
1
  6
SOLID
 62
     7
100
AcDbCircle
 10
-599.688534898
 20
604.749101156
 30
0.0
 40
56.0
  0
LINE
  5
165
330
1F
100
AcDbEntity
  8
1
  6
SOLID
 62
     7
100
AcDbLine
 10
-1423.668632539
 20
788.749045624
 30
0.0
 11
-1478.425991852
 21
788.749045624
 31
0.0
  0
CIRCLE
  5
166
330
1F
100
AcDbEntity
  8
1
  6
SOLID
 62
     7
100
AcDbCircle
 10
-599.688537598
 20
764.749023438
 30
0.0
 40
6.5
  0
LINE
  5
167
330
1F
100
AcDbEntity
  8
1
  6
SOLID
 62
     7
100
AcDbLine
 10
-1547.95338945
 20
198.70873949
 30
0.0
 11
-1545.04638162
 21
198.70873949
 31
0.0
  0
LINE
  5
168
330
1F
100
AcDbEntity
  8
1
  6
SOLID
 62
     7
100
AcDbLine
 10
-1545.04638162
 20
196.168398296
 30
0.0
 11
-1545.04638162
 21
206.329763071
 31
0.0
  0
ARC
  5
169
330
1F
100
AcDbEntity
  8
1
  6
SOLID
 62
     7
100
AcDbCircle
 10
-1112.425963613
 20
19.749048572
 30
0.0
 40
2.0
100
AcDbArc
 50
270.0
 51
0.0
  0
LINE
  5
16A
330
1F
100
AcDbEntity
  8
1
  6
SOLID
 62
     7
100
AcDbLine
 10
-1106.425963613
 20
671.749023437
 30
0.0
 11
-972.425963613
 21
671.749023437
 31
0.0
  0
LINE
  5
16B
330
1F
100
AcDbEntity
  8
1
  6
SOLID
 62
     7
100
AcDbLine
 10
-1338.425993356
 20
22.749111997
 30
0.0
 11
-1342.425948355
 21
22.749111997
 31
0.0
  0
LINE
  5
16C
330
1F
100
AcDbEntity
  8
1
  6
CENTER
 62
     7
100
AcDbLine
 10
-1044.425655407
 20
244.749023438
 30
0.0
 11
-1044.425655407
 21
154.749023438
 31
0.0
  0
LINE
  5
16D
330
1F
100
AcDbEntity
  8
1
  6
CENTER
 62
     7
100
AcDbLine
 10
-1058.425655407
 20
244.749023438
 30
0.0
 11
-1058.425655407
 21
154.749023438
 31
0.0
  0
LINE
  5
16E
330
1F
100
AcDbEntity
  8
1
  6
CENTER
 62
     7
100
AcDbLine
 10
-1072.425655407
 20
244.749023438
 30
0.0
 11
-1072.425655407
 21
154.749023438
 31
0.0
  0
LINE
  5
16F
330
1F
100
AcDbEntity
  8
1
  6
SOLID
 62
     7
100
AcDbLine
 10
-1265.750096945
 20
291.749023438
 30
0.0
 11
-1188.425948355
 21
291.749023438
 31
0.0
  0
LINE
  5
170
330
1F
100
AcDbEntity
  8
1
  6
SOLID
 62
     7
100
AcDbLine
 10
-971.425963613
 20
672.749023437
 30
0.0
 11
-971.425963613
 21
684.749023437
 31
0.0
  0
LINE
  5
171
330
1F
100
AcDbEntity
  8
1
  6
SOLID
 62
     7
100
AcDbLine
 10
-1106.425963613
 20
523.749023438
 30
0.0
 11
-972.425963613
 21
523.749023438
 31
0.0
  0
LINE
  5
172
330
1F
100
AcDbEntity
  8
1
  6
SOLID
 62
     7
100
AcDbLine
 10
-1106.425963613
 20
537.749023438
 30
0.0
 11
-972.425963613
 21
537.749023438
 31
0.0
  0
LINE
  5
173
330
1F
100
AcDbEntity
  8
1
  6
SOLID
 62
     7
100
AcDbLine
 10
-971.425963613
 20
536.749023438
 30
0.0
 11
-971.425963613
 21
524.749023438
 31
0.0
  0
LINE
  5
174
330
1F
100
AcDbEntity
  8
1
  6
CENTER
 62
     7
100
AcDbLine
 10
-1114.378416246
 20
711.249021816
 30
0.0
 11
-1100.347209399
 21
711.249021816
 31
0.0
  0
LINE
  5
175
330
1F
100
AcDbEntity
  8
1
  6
CENTER
 62
     7
100
AcDbLine
 10
-1130.631809771
 20
678.749023437
 30
0.0
 11
-959.62479197
 21
678.749023437
 31
0.0
  0
LINE
  5
176
330
1F
100
AcDbEntity
  8
1
  6
SOLID
 62
     7
100
AcDbLine
 10
-1106.425963613
 20
663.749000531
 30
0.0
 11
-1106.425963613
 21
728.749018038
 31
0.0
  0
LINE
  5
177
330
1F
100
AcDbEntity
  8
1
  6
SOLID
 62
     7
100
AcDbLine
 10
-1188.425948355
 20
291.749023438
 30
0.0
 11
-1188.425948355
 21
271.749023438
 31
0.0
  0
LINE
  5
178
330
1F
100
AcDbEntity
  8
1
  6
SOLID
 62
     7
100
AcDbLine
 10
-1342.425948355
 20
604.749023438
 30
0.0
 11
-1342.425948355
 21
707.749023438
 31
0.0
  0
LINE
  5
179
330
1F
100
AcDbEntity
  8
1
  6
SOLID
 62
     7
100
AcDbLine
 10
-593.188537598
 20
760.996246576
 30
0.0
 11
-593.188537598
 21
768.501800299
 31
0.0
  0
LINE
  5
17A
330
1F
100
AcDbEntity
  8
1
  6
SOLID
 62
     7
100
AcDbLine
 10
-1265.750096945
 20
443.328190173
 30
0.0
 11
-1188.425948355
 21
443.328190173
 31
0.0
  0
LINE
  5
17B
330
1F
100
AcDbEntity
  8
1
  6
SOLID
 62
     7
100
AcDbLine
 10
-1265.750096945
 20
440.400965566
 30
0.0
 11
-1188.425948355
 21
440.400965566
 31
0.0
  0
LINE
  5
17C
330
1F
100
AcDbEntity
  8
1
  6
SOLID
 62
     7
100
AcDbLine
 10
-1338.425993356
 20
771.748998303
 30
0.0
 11
-1338.425993356
 21
721.749023438
 31
0.0
  0
LINE
  5
17D
330
1F
100
AcDbEntity
  8
1
  6
CENTER
 62
     7
100
AcDbLine
 10
-1420.425948355
 20
714.749023438
 30
0.0
 11
-1342.937213264
 21
714.749023438
 31
0.0
  0
DIMENSION
  5
18D
330
1F
100
AcDbEntity
  8
1
  6
SOLID
 62
     7
100
AcDbDimension
  2
*D9
 10
-773.805358887
 20
424.749145508
 30
0.0
 11
-779.305358887
 21
439.225006104
 31
0.0
 70
    32
 71
     5
 42
-1.0
  3
10
100
AcDbAlignedDimension
 13
-757.188537598
 23
470.749145508
 33
0.0
 14
-729.688537598
 24
424.749145508
 34
0.0
 50
90.0
100
AcDbRotatedDimension
  0
LINE
  5
18E
330
1F
100
AcDbEntity
  8
1
  6
SOLID
 62
     7
100
AcDbLine
 10
-1110.425963613
 20
728.749018038
 30
0.0
 11
-1106.425963613
 21
728.749018038
 31
0.0
  0
LINE
  5
18F
330
1F
100
AcDbEntity
  8
1
  6
SOLID
 62
     7
100
AcDbLine
 10
-1110.425963613
 20
663.749000531
 30
0.0
 11
-1106.425963613
 21
663.749000531
 31
0.0
  0
LINE
  5
190
330
1F
100
AcDbEntity
  8
1
  6
SOLID
 62
     7
100
AcDbLine
 10
-1390.625933647
 20
501.749023438
 30
0.0
 11
-1338.425993356
 21
501.749023438
 31
0.0
  0
LINE
  5
191
330
1F
100
AcDbEntity
  8
1
  6
SOLID
 62
     7
100
AcDbLine
 10
-1265.750096945
 20
487.749023438
 30
0.0
 11
-1160.425963613
 21
487.749023438
 31
0.0
  0
DIMENSION
  5
1A1
330
1F
100
AcDbEntity
  8
1
  6
SOLID
 62
     7
100
AcDbDimension
  2
*D10
 10
-773.805358887
 20
470.749145508
 30
0.0
 11
-779.305358887
 21
597.825866699
 31
0.0
 70
    32
 71
     5
 42
-1.0
  3
11
100
AcDbAlignedDimension
 13
-757.188537598
 23
750.749145508
 33
0.0
 14
-757.188537598
 24
470.749145508
 34
0.0
 50
90.0
100
AcDbRotatedDimension
  0
LINE
  5
1A2
330
1F
100
AcDbEntity
  8
1
  6
CENTER
 62
     7
100
AcDbLine
 10
-1130.631809771
 20
530.749023438
 30
0.0
 11
-959.62479197
 21
530.749023438
 31
0.0
  0
LINE
  5
1A3
330
1F
100
AcDbEntity
  8
1
  6
SOLID
 62
     7
100
AcDbLine
 10
-1110.425963613
 20
480.749028837
 30
0.0
 11
-1106.425963613
 21
480.749028837
 31
0.0
  0
LINE
  5
1A4
330
1F
100
AcDbEntity
  8
1
  6
SOLID
 62
     7
100
AcDbLine
 10
-1265.750096945
 20
438.400965566
 30
0.0
 11
-1188.425948355
 21
438.400965566
 31
0.0
  0
LINE
  5
1A5
330
1F
100
AcDbEntity
  8
1
  6
SOLID
 62
     7
100
AcDbLine
 10
-1265.750096945
 20
437.700965556
 30
0.0
 11
-1188.425948355
 21
437.700965556
 31
0.0
  0
LINE
  5
1A6
330
1F
100
AcDbEntity
  8
1
  6
SOLID
 62
     7
100
AcDbLine
 10
-1106.425963613
 20
545.749046344
 30
0.0
 11
-1106.425963613
 21
480.749028837
 31
0.0
  0
LINE
  5
1A7
330
1F
100
AcDbEntity
  8
1
  6
SOLID
 62
     7
100
AcDbLine
 10
-1342.425948355
 20
604.749023438
 30
0.0
 11
-1342.425948355
 21
501.749023438
 31
0.0
  0
LINE
  5
1A8
330
1F
100
AcDbEntity
  8
1
  6
SOLID
 62
     7
100
AcDbLine
 10
-1338.425993356
 20
492.149027547
 30
0.0
 11
-1338.425993356
 21
604.749023438
 31
0.0
  0
DIMENSION
  5
1B8
330
1F
100
AcDbEntity
  8
1
  6
SOLID
 62
     7
100
AcDbDimension
  2
*D11
 10
-800.383911133
 20
424.749145508
 30
0.0
 11
-805.883911133
 21
574.367248535
 31
0.0
 70
    32
 71
     5
 42
-1.0
  3
12
100
AcDbAlignedDimension
 13
-757.188537598
 23
750.749145508
 33
0.0
 14
-729.688537598
 24
424.749145508
 34
0.0
 50
90.0
100
AcDbRotatedDimension
  0
LINE
  5
1B9
330
1F
100
AcDbEntity
  8
1
  6
CENTER
 62
     7
100
AcDbLine
 10
-1114.378416246
 20
498.249025059
 30
0.0
 11
-1100.347209399
 21
498.249025059
 31
0.0
  0
LINE
  5
1BA
330
1F
100
AcDbEntity
  8
1
  6
SOLID
 62
     7
100
AcDbLine
 10
-1110.425963613
 20
545.749046344
 30
0.0
 11
-1106.425963613
 21
545.749046344
 31
0.0
  0
LINE
  5
1BB
330
1F
100
AcDbEntity
  8
1
  6
SOLID
 62
     7
100
AcDbLine
 10
-1104.425963613
 20
604.749023438
 30
0.0
 11
-1104.425963613
 21
537.749023438
 31
0.0
  0
LINE
  5
1BC
330
1F
100
AcDbEntity
  8
1
  6
SOLID
 62
     7
100
AcDbLine
 10
-1097.425655407
 20
726.749028734
 30
0.0
 11
-1097.425655407
 21
685.749023437
 31
0.0
  0
LINE
  5
1BD
330
1F
100
AcDbEntity
  8
1
  6
CENTER
 62
     7
100
AcDbLine
 10
-1086.425655407
 20
739.470399928
 30
0.0
 11
-1086.425655407
 21
685.749023437
 31
0.0
  0
LINE
  5
1BE
330
1F
100
AcDbEntity
  8
1
  6
CENTER
 62
     7
100
AcDbLine
 10
-1072.425655407
 20
739.470399928
 30
0.0
 11
-1072.425655407
 21
685.749023437
 31
0.0
  0
LINE
  5
1BF
330
1F
100
AcDbEntity
  8
1
  6
CENTER
 62
     7
100
AcDbLine
 10
-1058.425655407
 20
739.470399928
 30
0.0
 11
-1058.425655407
 21
685.749023437
 31
0.0
  0
LINE
  5
1C0
330
1F
100
AcDbEntity
  8
1
  6
CENTER
 62
     7
100
AcDbLine
 10
-1044.425655407
 20
739.470399928
 30
0.0
 11
-1044.425655407
 21
685.749023437
 31
0.0
  0
LINE
  5
1C1
330
1F
100
AcDbEntity
  8
1
  6
SOLID
 62
     7
100
AcDbLine
 10
-977.425655407
 20
726.749028734
 30
0.0
 11
-977.425655407
 21
685.749023437
 31
0.0
  0
LINE
  5
1C2
330
1F
100
AcDbEntity
  8
1
  6
CENTER
 62
     7
100
AcDbLine
 10
-1030.425655407
 20
739.470399928
 30
0.0
 11
-1030.425655407
 21
685.749023437
 31
0.0
  0
LINE
  5
1C3
330
1F
100
AcDbEntity
  8
1
  6
SOLID
 62
     7
100
AcDbLine
 10
-1338.425993356
 20
437.749048572
 30
0.0
 11
-1338.425993356
 21
487.749023438
 31
0.0
  0
LINE
  5
1C4
330
1F
100
AcDbEntity
  8
1
  6
SOLID
 62
     7
100
AcDbLine
 10
-1342.425948355
 20
487.749023438
 30
0.0
 11
-1342.425948355
 21
467.749111997
 31
0.0
  0
DIMENSION
  5
1D4
330
1F
100
AcDbEntity
  8
1
  6
SOLID
 62
     7
100
AcDbDimension
  2
*D12
 10
-757.188537598
 20
346.709472656
 30
0.0
 11
-612.611816406
 21
352.209472656
 31
0.0
 70
    32
  1
  320   
 71
     5
 42
-1.0
  3
13
100
AcDbAlignedDimension
 13
-442.188537598
 23
470.749145508
 33
0.0
 14
-757.188537598
 24
470.749145508
 34
0.0
100
AcDbRotatedDimension
  0
LINE
  5
1D5
330
1F
100
AcDbEntity
  8
1
  6
SOLID
 62
     7
100
AcDbLine
 10
-459.688534898
 20
469.749101156
 30
0.0
 11
-459.688534898
 21
470.749101156
 31
0.0
  0
LINE
  5
1D6
330
1F
100
AcDbEntity
  8
1
  6
SOLID
 62
     7
100
AcDbLine
 10
-442.188534898
 20
470.749101156
 30
0.0
 11
-562.188534898
 21
470.749101156
 31
0.0
  0
LINE
  5
1D7
330
1F
100
AcDbEntity
  8
1
  6
CENTER
 62
     7
100
AcDbLine
 10
-1016.425655407
 20
739.470399928
 30
0.0
 11
-1016.425655407
 21
685.749023437
 31
0.0
  0
LINE
  5
1D8
330
1F
100
AcDbEntity
  8
1
  6
CENTER
 62
     7
100
AcDbLine
 10
-1002.425655407
 20
739.470399928
 30
0.0
 11
-1002.425655407
 21
685.749023437
 31
0.0
  0
LINE
  5
1D9
330
1F
100
AcDbEntity
  8
1
  6
CENTER
 62
     7
100
AcDbLine
 10
-988.425655407
 20
739.470399928
 30
0.0
 11
-988.425655407
 21
685.749023437
 31
0.0
  0
LINE
  5
1DA
330
1F
100
AcDbEntity
  8
1
  6
SOLID
 62
     7
100
AcDbLine
 10
-1097.425655407
 20
604.749023438
 30
0.0
 11
-1097.425655407
 21
537.749023438
 31
0.0
  0
LINE
  5
1DB
330
1F
100
AcDbEntity
  8
1
  6
CENTER
 62
     7
100
AcDbLine
 10
-1086.425655407
 20
470.027646947
 30
0.0
 11
-1086.425655407
 21
523.749023438
 31
0.0
  0
LINE
  5
1DC
330
1F
100
AcDbEntity
  8
1
  6
CENTER
 62
     7
100
AcDbLine
 10
-494.503299059
 20
485.749101156
 30
0.0
 11
-468.631402726
 21
485.749101156
 31
0.0
  0
LINE
  5
1DD
330
1F
100
AcDbEntity
  8
1
  6
CENTER
 62
     7
100
AcDbLine
 10
-1072.425655407
 20
470.027646947
 30
0.0
 11
-1072.425655407
 21
523.749023438
 31
0.0
  0
LINE
  5
1DE
330
1F
100
AcDbEntity
  8
1
  6
CENTER
 62
     7
100
AcDbLine
 10
-1058.425655407
 20
470.027646947
 30
0.0
 11
-1058.425655407
 21
523.749023438
 31
0.0
  0
LINE
  5
1DF
330
1F
100
AcDbEntity
  8
1
  6
CENTER
 62
     7
100
AcDbLine
 10
-1044.425655407
 20
470.027646947
 30
0.0
 11
-1044.425655407
 21
523.749023438
 31
0.0
  0
LINE
  5
1E0
330
1F
100
AcDbEntity
  8
1
  6
CENTER
 62
     7
100
AcDbLine
 10
-1030.425655407
 20
470.027646947
 30
0.0
 11
-1030.425655407
 21
523.749023438
 31
0.0
  0
LINE
  5
1E1
330
1F
100
AcDbEntity
  8
1
  6
CENTER
 62
     7
100
AcDbLine
 10
-1016.425655407
 20
470.027646947
 30
0.0
 11
-1016.425655407
 21
523.749023438
 31
0.0
  0
LINE
  5
1E2
330
1F
100
AcDbEntity
  8
1
  6
CENTER
 62
     7
100
AcDbLine
 10
-1002.425655407
 20
470.027646947
 30
0.0
 11
-1002.425655407
 21
523.749023438
 31
0.0
  0
LINE
  5
1E3
330
1F
100
AcDbEntity
  8
1
  6
CENTER
 62
     7
100
AcDbLine
 10
-536.503299059
 20
485.749101156
 30
0.0
 11
-514.202315719
 21
485.749101156
 31
0.0
  0
LINE
  5
1E4
330
1F
100
AcDbEntity
  8
1
  6
CENTER
 62
     7
100
AcDbLine
 10
-988.425655407
 20
470.027646947
 30
0.0
 11
-988.425655407
 21
523.749023438
 31
0.0
  0
LINE
  5
1E5
330
1F
100
AcDbEntity
  8
1
  6
SOLID
 62
     7
100
AcDbLine
 10
-977.425655407
 20
671.749023437
 30
0.0
 11
-977.425655407
 21
537.749023438
 31
0.0
  0
LINE
  5
1E6
330
1F
100
AcDbEntity
  8
1
  6
CENTER
 62
     7
100
AcDbLine
 10
-1086.425655407
 20
244.749023438
 30
0.0
 11
-1086.425655407
 21
154.749023438
 31
0.0
  0
LINE
  5
1E7
330
1F
100
AcDbEntity
  8
1
  6
CENTER
 62
     7
100
AcDbLine
 10
-1030.425655407
 20
244.749023438
 30
0.0
 11
-1030.425655407
 21
154.749023438
 31
0.0
  0
LINE
  5
1E8
330
1F
100
AcDbEntity
  8
1
  6
CENTER
 62
     7
100
AcDbLine
 10
-481.188534898
 20
499.770522003
 30
0.0
 11
-481.188534898
 21
470.42712287
 31
0.0
  0
CIRCLE
  5
1E9
330
1F
100
AcDbEntity
  8
1
  6
SOLID
 62
     7
100
AcDbCircle
 10
-481.188534898
 20
485.749101156
 30
0.0
 40
4.199999809
  0
ARC
  5
1EA
330
1F
100
AcDbEntity
  8
1
  6
SOLID
 62
     7
100
AcDbCircle
 10
-481.188534898
 20
485.749101156
 30
0.0
 40
5.0
100
AcDbArc
 50
200.0
 51
140.0
  0
LINE
  5
1EB
330
1F
100
AcDbEntity
  8
1
  6
CENTER
 62
     7
100
AcDbLine
 10
-523.188534898
 20
499.770522003
 30
0.0
 11
-523.188534898
 21
470.42712287
 31
0.0
  0
CIRCLE
  5
1EC
330
1F
100
AcDbEntity
  8
1
  6
SOLID
 62
     7
100
AcDbCircle
 10
-523.188534898
 20
485.749101156
 30
0.0
 40
4.199999809
  0
ARC
  5
1ED
330
1F
100
AcDbEntity
  8
1
  6
SOLID
 62
     7
100
AcDbCircle
 10
-523.188534898
 20
485.749101156
 30
0.0
 40
5.0
100
AcDbArc
 50
200.0
 51
140.0
  0
ARC
  5
1EE
330
1F
100
AcDbEntity
  8
1
  6
SOLID
 62
     7
100
AcDbCircle
 10
-599.688534898
 20
604.749101156
 30
0.0
 40
127.0
100
AcDbArc
 50
270.0
 51
287.174063718
  0
ARC
  5
1EF
330
1F
100
AcDbEntity
  8
1
  6
SOLID
 62
     7
100
AcDbCircle
 10
-599.688534898
 20
604.749101156
 30
0.0
 40
100.0
100
AcDbArc
 50
270.0
 51
292.024312837
  0
LINE
  5
1F0
330
1F
100
AcDbEntity
  8
1
  6
SOLID
 62
     7
100
AcDbLine
 10
-637.188534898
 20
750.749101156
 30
0.0
 11
-637.188534898
 21
646.33936444
 31
0.0
  0
ARC
  5
1F1
330
1F
100
AcDbEntity
  8
1
  6
SOLID
 62
     7
100
AcDbCircle
 10
-599.688534898
 20
604.749101156
 30
0.0
 40
100.0
100
AcDbArc
 50
67.975687163
 51
90.0
  0
LINE
  5
1F2
330
1F
100
AcDbEntity
  8
1
  6
SOLID
 62
     7
100
AcDbLine
 10
-562.188534898
 20
750.749101156
 30
0.0
 11
-562.188534898
 21
646.33936444
 31
0.0
  0
ARC
  5
1F3
330
1F
100
AcDbEntity
  8
1
  6
SOLID
 62
     7
100
AcDbCircle
 10
-599.688534898
 20
604.749101156
 30
0.0
 40
127.0
100
AcDbArc
 50
72.825936282
 51
90.0
  0
LINE
  5
1F4
330
1F
100
AcDbEntity
  8
1
  6
SOLID
 62
     7
100
AcDbLine
 10
-562.188534898
 20
563.158837873
 30
0.0
 11
-562.188534898
 21
470.749101156
 31
0.0
  0
LINE
  5
1F5
330
1F
100
AcDbEntity
  8
1
  6
CENTER
 62
     7
100
AcDbLine
 10
-536.503299059
 20
723.749101156
 30
0.0
 11
-514.202315719
 21
723.749101156
 31
0.0
  0
LINE
  5
1F6
330
1F
100
AcDbEntity
  8
1
  6
CENTER
 62
     7
100
AcDbLine
 10
-523.188534898
 20
709.72768031
 30
0.0
 11
-523.188534898
 21
739.071079442
 31
0.0
  0
CIRCLE
  5
1F7
330
1F
100
AcDbEntity
  8
1
  6
SOLID
 62
     7
100
AcDbCircle
 10
-523.188534898
 20
723.749101156
 30
0.0
 40
4.199999809
  0
ARC
  5
1F8
330
1F
100
AcDbEntity
  8
1
  6
SOLID
 62
     7
100
AcDbCircle
 10
-523.188534898
 20
723.749101156
 30
0.0
 40
5.0
100
AcDbArc
 50
220.0
 51
160.0
  0
LINE
  5
1F9
330
1F
100
AcDbEntity
  8
1
  6
SOLID
 62
     7
100
AcDbLine
 10
-442.188534898
 20
750.749101156
 30
0.0
 11
-562.188534898
 21
750.749101156
 31
0.0
  0
LINE
  5
1FA
330
1F
100
AcDbEntity
  8
1
  6
SOLID
 62
     7
100
AcDbLine
 10
-442.188534898
 20
738.749101156
 30
0.0
 11
-562.188534898
 21
738.749101156
 31
0.0
  0
LINE
  5
1FB
330
1F
100
AcDbEntity
  8
1
  6
SOLID
 62
     7
100
AcDbLine
 10
-442.188534898
 20
750.749101156
 30
0.0
 11
-442.188534898
 21
470.749101156
 31
0.0
  0
LINE
  5
1FC
330
1F
100
AcDbEntity
  8
1
  6
CENTER
 62
     7
100
AcDbLine
 10
-494.503299059
 20
723.749101156
 30
0.0
 11
-468.631402726
 21
723.749101156
 31
0.0
  0
LINE
  5
1FD
330
1F
100
AcDbEntity
  8
1
  6
CENTER
 62
     7
100
AcDbLine
 10
-481.188534898
 20
709.72768031
 30
0.0
 11
-481.188534898
 21
739.071079442
 31
0.0
  0
CIRCLE
  5
1FE
330
1F
100
AcDbEntity
  8
1
  6
SOLID
 62
     7
100
AcDbCircle
 10
-481.188534898
 20
723.749101156
 30
0.0
 40
4.199999809
  0
ARC
  5
1FF
330
1F
100
AcDbEntity
  8
1
  6
SOLID
 62
     7
100
AcDbCircle
 10
-481.188534898
 20
723.749101156
 30
0.0
 40
5.0
100
AcDbArc
 50
220.0
 51
160.0
  0
LINE
  5
200
330
1F
100
AcDbEntity
  8
1
  6
SOLID
 62
     7
100
AcDbLine
 10
-562.188534898
 20
744.749101156
 30
0.0
 11
-599.688534898
 21
744.749101156
 31
0.0
  0
ARC
  5
201
330
1F
100
AcDbEntity
  8
1
  6
SOLID
 62
     7
100
AcDbCircle
 10
-599.688534898
 20
604.749101156
 30
0.0
 40
127.0
100
AcDbArc
 50
252.825936282
 51
270.0
  0
ARC
  5
202
330
1F
100
AcDbEntity
  8
1
  6
SOLID
 62
     7
100
AcDbCircle
 10
-599.688534898
 20
604.749101156
 30
0.0
 40
100.0
100
AcDbArc
 50
247.975687163
 51
270.0
  0
LINE
  5
203
330
1F
100
AcDbEntity
  8
1
  6
CENTER
 62
     7
100
AcDbLine
 10
-648.188534898
 20
607.141582503
 30
0.0
 11
-648.188534898
 21
598.590265847
 31
0.0
  0
LINE
  5
204
330
1F
100
AcDbEntity
  8
1
  6
CENTER
 62
     7
100
AcDbLine
 10
-704.873770738
 20
485.749101156
 30
0.0
 11
-730.745667071
 21
485.749101156
 31
0.0
  0
LINE
  5
205
330
1F
100
AcDbEntity
  8
1
  6
CENTER
 62
     7
100
AcDbLine
 10
-718.188534898
 20
499.770522003
 30
0.0
 11
-718.188534898
 21
470.42712287
 31
0.0
  0
CIRCLE
  5
206
330
1F
100
AcDbEntity
  8
1
  6
SOLID
 62
     7
100
AcDbCircle
 10
-718.188534898
 20
485.749101156
 30
0.0
 40
4.199999809
  0
ARC
  5
207
330
1F
100
AcDbEntity
  8
1
  6
SOLID
 62
     7
100
AcDbCircle
 10
-718.188534898
 20
485.749101156
 30
0.0
 40
5.0
100
AcDbArc
 50
40.0
 51
340.0
  0
LINE
  5
208
330
1F
100
AcDbEntity
  8
1
  6
CENTER
 62
     7
100
AcDbLine
 10
-662.873770738
 20
485.749101156
 30
0.0
 11
-685.174754078
 21
485.749101156
 31
0.0
  0
LINE
  5
209
330
1F
100
AcDbEntity
  8
1
  6
CENTER
 62
     7
100
AcDbLine
 10
-676.188534898
 20
499.770522003
 30
0.0
 11
-676.188534898
 21
470.42712287
 31
0.0
  0
CIRCLE
  5
20A
330
1F
100
AcDbEntity
  8
1
  6
SOLID
 62
     7
100
AcDbCircle
 10
-676.188534898
 20
485.749101156
 30
0.0
 40
4.199999809
  0
LINE
  5
20B
330
1F
100
AcDbEntity
  8
1
  6
CENTER
 62
     7
100
AcDbLine
 10
-551.188534898
 20
609.025770919
 30
0.0
 11
-551.188534898
 21
599.894703981
 31
0.0
  0
ARC
  5
20C
330
1F
100
AcDbEntity
  8
1
  6
SOLID
 62
     7
100
AcDbCircle
 10
-599.688534898
 20
604.749101156
 30
0.0
 40
100.0
100
AcDbArc
 50
90.0
 51
112.024312837
  0
ARC
  5
20D
330
1F
100
AcDbEntity
  8
1
  6
SOLID
 62
     7
100
AcDbCircle
 10
-676.188534898
 20
485.749101156
 30
0.0
 40
5.0
100
AcDbArc
 50
40.0
 51
340.0
  0
ARC
  5
20E
330
1F
100
AcDbEntity
  8
1
  6
SOLID
 62
     7
100
AcDbCircle
 10
-599.688534898
 20
604.749101156
 30
0.0
 40
127.0
100
AcDbArc
 50
90.0
 51
107.174063718
  0
LINE
  5
20F
330
1F
100
AcDbEntity
  8
1
  6
SOLID
 62
     7
100
AcDbLine
 10
-757.188534898
 20
750.749101156
 30
0.0
 11
-637.188534898
 21
750.749101156
 31
0.0
  0
LINE
  5
210
330
1F
100
AcDbEntity
  8
1
  6
SOLID
 62
     7
100
AcDbLine
 10
-757.188534898
 20
738.749101156
 30
0.0
 11
-637.188534898
 21
738.749101156
 31
0.0
  0
LINE
  5
211
330
1F
100
AcDbEntity
  8
1
  6
SOLID
 62
     7
100
AcDbLine
 10
-757.188534898
 20
470.749101156
 30
0.0
 11
-637.188534898
 21
470.749101156
 31
0.0
  0
LINE
  5
212
330
1F
100
AcDbEntity
  8
1
  6
SOLID
 62
     7
100
AcDbLine
 10
-599.688537598
 20
757.243469715
 30
0.0
 11
-593.188537434
 21
760.996246627
 31
0.0
  0
LINE
  5
213
330
1F
100
AcDbEntity
  8
1
  6
SOLID
 62
     7
100
AcDbLine
 10
-606.188537598
 20
760.996246576
 30
0.0
 11
-599.688537434
 21
757.243469665
 31
0.0
  0
LINE
  5
214
330
1F
100
AcDbEntity
  8
1
  6
SOLID
 62
     7
100
AcDbLine
 10
-606.188537598
 20
768.501800299
 30
0.0
 11
-606.188537598
 21
760.996246576
 31
0.0
  0
LINE
  5
215
330
1F
100
AcDbEntity
  8
1
  6
CENTER
 62
     7
100
AcDbLine
 10
-1420.425948355
 20
494.749023438
 30
0.0
 11
-1342.937213264
 21
494.749023438
 31
0.0
  0
LINE
  5
216
330
1F
100
AcDbEntity
  8
1
  6
SOLID
 62
     7
100
AcDbLine
 10
-1188.425948355
 20
437.749048572
 30
0.0
 11
-1188.425948355
 21
487.749023438
 31
0.0
  0
DIMENSION
  5
227
330
1F
100
AcDbEntity
  8
1
  6
SOLID
 62
     7
100
AcDbDimension
  2
*D13
 10
-919.421813965
 20
482.749023438
 30
0.0
 11
-924.921813965
 21
567.536315918
 31
0.0
 70
    32
  1
 %%c 210/240   
 71
     5
 42
-1.0
  3
14
100
AcDbAlignedDimension
 13
-977.42565918
 23
726.749023438
 33
0.0
 14
-977.42565918
 24
482.749023438
 34
0.0
 50
90.0
100
AcDbRotatedDimension
  0
LINE
  5
228
330
1F
100
AcDbEntity
  8
1
  6
SOLID
 62
     7
100
AcDbLine
 10
-1188.425948355
 20
492.149027547
 30
0.0
 11
-1188.425948355
 21
604.749023438
 31
0.0
  0
LINE
  5
229
330
1F
100
AcDbEntity
  8
1
  6
SOLID
 62
     7
100
AcDbLine
 10
-1184.425948355
 20
501.749023438
 30
0.0
 11
-1184.425948355
 21
604.749023438
 31
0.0
  0
DIMENSION
  5
239
330
1F
100
AcDbEntity
  8
1
  6
SOLID
 62
     7
100
AcDbDimension
  2
*D14
 10
-1037.42565918
 20
368.609375
 30
0.0
 11
-1015.491210938
 21
374.109375
 31
0.0
 70
    32
 71
     5
 42
-1.0
  3
15
100
AcDbAlignedDimension
 13
-977.42565918
 23
584.229248047
 33
0.0
 14
-1037.42565918
 24
482.749023438
 34
0.0
100
AcDbRotatedDimension
  0
LINE
  5
23A
330
1F
100
AcDbEntity
  8
1
  6
SOLID
 62
     7
100
AcDbLine
 10
-1188.425948355
 20
501.749023438
 30
0.0
 11
-1160.425963613
 21
501.749023438
 31
0.0
  0
LINE
  5
23B
330
1F
100
AcDbEntity
  8
1
  6
SOLID
 62
     7
100
AcDbLine
 10
-1184.425948355
 20
467.749048572
 30
0.0
 11
-1184.425948355
 21
487.749023438
 31
0.0
  0
DIMENSION
  5
24B
330
1F
100
AcDbEntity
  8
1
  6
SOLID
 62
     7
100
AcDbDimension
  2
*D15
 10
-1604.966674805
 20
424.749023438
 30
0.0
 11
-1610.466674805
 21
634.325744629
 31
0.0
 70
    32
 71
     5
 42
-1.0
  3
16
100
AcDbAlignedDimension
 13
-1410.426025391
 23
869.748901367
 33
0.0
 14
-1415.42590332
 24
424.749023438
 34
0.0
 50
90.0
100
AcDbRotatedDimension
  0
LINE
  5
24C
330
1F
100
AcDbEntity
  8
1
  6
CENTER
 62
     7
100
AcDbLine
 10
-1182.988699729
 20
494.749023438
 30
0.0
 11
-1117.329604125
 21
494.749023438
 31
0.0
  0
LINE
  5
24D
330
1F
100
AcDbEntity
  8
1
  6
SOLID
 62
     7
100
AcDbLine
 10
-1129.425963613
 20
487.749023438
 30
0.0
 11
-1125.425963613
 21
487.749023438
 31
0.0
  0
LINE
  5
24E
330
1F
100
AcDbEntity
  8
1
  6
SOLID
 62
     7
100
AcDbLine
 10
-1129.425963613
 20
501.749023438
 30
0.0
 11
-1125.425963613
 21
501.749023438
 31
0.0
  0
LINE
  5
24F
330
1F
100
AcDbEntity
  8
1
  6
SOLID
 62
     7
100
AcDbLine
 10
-1129.425963613
 20
503.249023438
 30
0.0
 11
-1129.425963613
 21
486.249023438
 31
0.0
  0
LINE
  5
250
330
1F
100
AcDbEntity
  8
1
  6
SOLID
 62
     7
100
AcDbLine
 10
-1516.826004019
 20
731.064145565
 30
0.0
 11
-1517.226004025
 21
731.064145565
 31
0.0
  0
LINE
  5
251
330
1F
100
AcDbEntity
  8
1
  6
SOLID
 62
     7
100
AcDbLine
 10
-1516.826004019
 20
716.434145451
 30
0.0
 11
-1516.826004019
 21
731.064145565
 31
0.0
  0
LINE
  5
252
330
1F
100
AcDbEntity
  8
1
  6
SOLID
 62
     7
100
AcDbLine
 10
-1517.226004025
 20
716.434145451
 30
0.0
 11
-1516.826004019
 21
716.434145451
 31
0.0
  0
LINE
  5
253
330
1F
100
AcDbEntity
  8
1
  6
SOLID
 62
     7
100
AcDbLine
 10
-1523.226004115
 20
716.820942402
 30
0.0
 11
-1523.226004115
 21
730.677348614
 31
0.0
  0
ARC
  5
254
330
1F
100
AcDbEntity
  8
1
  6
SOLID
 62
     7
100
AcDbCircle
 10
-1519.136688993
 20
716.820942402
 30
0.0
 40
4.089315121
100
AcDbArc
 50
145.615740999
 51
214.384259001
  0
LINE
  5
255
330
1F
100
AcDbEntity
  8
1
  6
SOLID
 62
     7
100
AcDbLine
 10
-1522.511472693
 20
719.130343437
 30
0.0
 11
-1517.226004025
 21
719.130343437
 31
0.0
  0
ARC
  5
256
330
1F
100
AcDbEntity
  8
1
  6
SOLID
 62
     7
100
AcDbCircle
 10
-1507.940540762
 20
723.749145508
 30
0.0
 40
15.285463353
100
AcDbArc
 50
162.412040055
 51
197.587959945
  0
LINE
  5
257
330
1F
100
AcDbEntity
  8
1
  6
SOLID
 62
     7
100
AcDbLine
 10
-1522.511472693
 20
728.367947578
 30
0.0
 11
-1517.226004025
 21
728.367947578
 31
0.0
  0
ARC
  5
258
330
1F
100
AcDbEntity
  8
1
  6
SOLID
 62
     7
100
AcDbCircle
 10
-1519.136688993
 20
730.677348614
 30
0.0
 40
4.089315121
100
AcDbArc
 50
145.615740999
 51
214.384259001
  0
LINE
  5
259
330
1F
100
AcDbEntity
  8
1
  6
SOLID
 62
     7
100
AcDbLine
 10
-1517.226004025
 20
732.986749649
 30
0.0
 11
-1522.511472693
 21
732.986749649
 31
0.0
  0
LINE
  5
25A
330
1F
100
AcDbEntity
  8
1
  6
SOLID
 62
     7
100
AcDbLine
 10
-1517.226004025
 20
714.511541367
 30
0.0
 11
-1517.226004025
 21
732.986749649
 31
0.0
  0
LINE
  5
25B
330
1F
100
AcDbEntity
  8
1
  6
SOLID
 62
     7
100
AcDbLine
 10
-1522.511472693
 20
714.511541367
 30
0.0
 11
-1517.226004025
 21
714.511541367
 31
0.0
  0
LINE
  5
25C
330
1F
100
AcDbEntity
  8
1
  6
SOLID
 62
     7
100
AcDbLine
 10
-1516.82594988
 20
738.749023438
 30
0.0
 11
-1516.82594988
 21
604.749023438
 31
0.0
  0
LINE
  5
25D
330
1F
100
AcDbEntity
  8
1
  6
SOLID
 62
     7
100
AcDbLine
 10
-1457.825947973
 20
750.749023438
 30
0.0
 11
-1457.825947973
 21
604.749023438
 31
0.0
  0
LINE
  5
25E
330
1F
100
AcDbEntity
  8
1
  6
SOLID
 62
     7
100
AcDbLine
 10
-1438.425948355
 20
750.749023438
 30
0.0
 11
-1457.825947973
 21
750.749023438
 31
0.0
  0
LINE
  5
25F
330
1F
100
AcDbEntity
  8
1
  6
SOLID
 62
     7
100
AcDbLine
 10
-1457.825947973
 20
738.749023438
 30
0.0
 11
-1516.82594988
 21
738.749023438
 31
0.0
  0
LINE
  5
260
330
1F
100
AcDbEntity
  8
1
  6
SOLID
 62
     7
100
AcDbLine
 10
-1438.425948355
 20
750.749023438
 30
0.0
 11
-1438.425948355
 21
604.749023438
 31
0.0
  0
LINE
  5
261
330
1F
100
AcDbEntity
  8
1
  6
SOLID
 62
     7
100
AcDbLine
 10
-1544.825975221
 20
642.847093603
 30
0.0
 11
-1544.825975221
 21
566.650953272
 31
0.0
  0
LINE
  5
262
330
1F
100
AcDbEntity
  8
1
  6
SOLID
 62
     7
100
AcDbLine
 10
-1518.325960352
 20
643.249023438
 30
0.0
 11
-1543.325964749
 21
643.249023438
 31
0.0
  0
ARC
  5
263
330
1F
100
AcDbEntity
  8
1
  6
SOLID
 62
     7
100
AcDbCircle
 10
-1543.325964749
 20
640.249023438
 30
0.0
 40
3.0
100
AcDbArc
 50
90.0
 51
120.000230943
  0
LINE
  5
264
330
1F
100
AcDbEntity
  8
1
  6
SOLID
 62
     7
100
AcDbLine
 10
-977.425655407
 20
523.749023438
 30
0.0
 11
-977.425655407
 21
482.749028734
 31
0.0
  0
LINE
  5
265
330
1F
100
AcDbEntity
  8
1
  6
SOLID
 62
     7
100
AcDbLine
 10
-1097.425655407
 20
523.749023438
 30
0.0
 11
-1097.425655407
 21
482.749028734
 31
0.0
  0
LINE
  5
266
330
1F
100
AcDbEntity
  8
1
  6
SOLID
 62
     7
100
AcDbLine
 10
-977.425655407
 20
726.749028734
 30
0.0
 11
-1097.425655407
 21
726.749028734
 31
0.0
  0
LINE
  5
267
330
1F
100
AcDbEntity
  8
1
  6
SOLID
 62
     7
100
AcDbLine
 10
-977.425655407
 20
482.749028734
 30
0.0
 11
-1097.425655407
 21
482.749028734
 31
0.0
  0
LINE
  5
268
330
1F
100
AcDbEntity
  8
1
  6
SOLID
 62
     7
100
AcDbLine
 10
-1104.491645813
 20
691.749023438
 30
0.0
 11
-1104.091645718
 21
691.749023438
 31
0.0
  0
LINE
  5
269
330
1F
100
AcDbEntity
  8
1
  6
SOLID
 62
     7
100
AcDbLine
 10
-1104.091645718
 20
691.749023438
 30
0.0
 11
-1104.091645718
 21
707.749023438
 31
0.0
  0
LINE
  5
26A
330
1F
100
AcDbEntity
  8
1
  6
SOLID
 62
     7
100
AcDbLine
 10
-1104.091645718
 20
707.749023438
 30
0.0
 11
-1104.491645813
 21
707.749023438
 31
0.0
  0
LINE
  5
26B
330
1F
100
AcDbEntity
  8
1
  6
CENTER
 62
     7
100
AcDbLine
 10
-1265.750096945
 20
604.749023438
 30
0.0
 11
-967.497961628
 21
604.749023438
 31
0.0
  0
ARC
  5
26C
330
1F
100
AcDbEntity
  8
1
  6
SOLID
 62
     7
100
AcDbCircle
 10
-1518.325960352
 20
640.249023438
 30
0.0
 40
3.0
100
AcDbArc
 50
59.999769057
 51
90.0
  0
LINE
  5
26D
330
1F
100
AcDbEntity
  8
1
  6
SOLID
 62
     7
100
AcDbLine
 10
-1420.425948355
 20
729.749023438
 30
0.0
 11
-1438.425948355
 21
729.749023438
 31
0.0
  0
LINE
  5
26E
330
1F
100
AcDbEntity
  8
1
  6
SOLID
 62
     7
100
AcDbLine
 10
-1545.046003086
 20
599.66834105
 30
0.0
 11
-1545.046003086
 21
609.829705825
 31
0.0
  0
LINE
  5
26F
330
1F
100
AcDbEntity
  8
1
  6
SOLID
 62
     7
100
AcDbLine
 10
-1548.346003206
 20
600.938511647
 30
0.0
 11
-1548.346003206
 21
608.559535228
 31
0.0
  0
ARC
  5
270
330
1F
100
AcDbEntity
  8
1
  6
SOLID
 62
     7
100
AcDbCircle
 10
-1539.93899818
 20
604.749023438
 30
0.0
 40
8.407005026
100
AcDbArc
 50
162.412040055
 51
197.587959945
  0
LINE
  5
271
330
1F
100
AcDbEntity
  8
1
  6
SOLID
 62
     7
100
AcDbLine
 10
-1544.826003078
 20
608.772273556
 30
0.0
 11
-1545.046003086
 21
608.772273556
 31
0.0
  0
LINE
  5
272
330
1F
100
AcDbEntity
  8
1
  6
SOLID
 62
     7
100
AcDbLine
 10
-1420.42611621
 20
729.749023437
 30
0.0
 11
-1420.42611621
 21
653.749023437
 31
0.0
  0
LINE
  5
273
330
1F
100
AcDbEntity
  8
1
  6
SOLID
 62
     7
100
AcDbLine
 10
-1547.953010916
 20
607.289364631
 30
0.0
 11
-1545.046003086
 21
607.289364631
 31
0.0
  0
LINE
  5
274
330
1F
100
AcDbEntity
  8
1
  6
SOLID
 62
     7
100
AcDbLine
 10
-1545.046003086
 20
609.829705825
 30
0.0
 11
-1547.953010916
 21
609.829705825
 31
0.0
  0
ARC
  5
275
330
1F
100
AcDbEntity
  8
1
  6
SOLID
 62
     7
100
AcDbCircle
 10
-1546.096879841
 20
608.559535228
 30
0.0
 40
2.249123365
100
AcDbArc
 50
145.615740999
 51
214.384259001
  0
LINE
  5
276
330
1F
100
AcDbEntity
  8
1
  6
SOLID
 62
     7
100
AcDbLine
 10
-1518.325960352
 20
566.249023438
 30
0.0
 11
-1543.325964749
 21
566.249023438
 31
0.0
  0
LINE
  5
277
330
1F
100
AcDbEntity
  8
1
  6
SOLID
 62
     7
100
AcDbLine
 10
-1545.046003086
 20
600.725773319
 30
0.0
 11
-1544.826003078
 21
600.725773319
 31
0.0
  0
LINE
  5
278
330
1F
100
AcDbEntity
  8
1
  6
SOLID
 62
     7
100
AcDbLine
 10
-1547.953010916
 20
602.208682244
 30
0.0
 11
-1545.046003086
 21
602.208682244
 31
0.0
  0
LINE
  5
279
330
1F
100
AcDbEntity
  8
1
  6
SOLID
 62
     7
100
AcDbLine
 10
-1420.42611621
 20
479.749023438
 30
0.0
 11
-1420.42611621
 21
555.749023438
 31
0.0
  0
LINE
  5
27A
330
1F
100
AcDbEntity
  8
1
  6
SOLID
 62
     7
100
AcDbLine
 10
-1210.425991852
 20
784.748876654
 30
0.0
 11
-1410.425991852
 21
784.748876654
 31
0.0
  0
LINE
  5
27B
330
1F
100
AcDbEntity
  8
1
  6
SOLID
 62
     7
100
AcDbLine
 10
-1410.425991852
 20
744.748995611
 30
0.0
 11
-1410.425991852
 21
869.748876654
 31
0.0
  0
ARC
  5
27C
330
1F
100
AcDbEntity
  8
1
  6
SOLID
 62
     7
100
AcDbCircle
 10
-1367.425933096
 20
462.748995611
 30
0.0
 40
2.0
100
AcDbArc
 50
0.0
 51
90.0
  0
ARC
  5
27D
330
1F
100
AcDbEntity
  8
1
  6
SOLID
 62
     7
100
AcDbCircle
 10
-1403.425933096
 20
454.088741573
 30
0.0
 40
2.0
100
AcDbArc
 50
90.0
 51
180.0
  0
ARC
  5
27E
330
1F
100
AcDbEntity
  8
1
  6
SOLID
 62
     7
100
AcDbCircle
 10
-1387.425933096
 20
458.088741573
 30
0.0
 40
2.0
100
AcDbArc
 50
270.0
 51
0.0
  0
LINE
  5
27F
330
1F
100
AcDbEntity
  8
1
  6
SOLID
 62
     7
100
AcDbLine
 10
-1385.425933096
 20
467.74899292
 30
0.0
 11
-1385.425933096
 21
458.088741573
 31
0.0
  0
LINE
  5
280
330
1F
100
AcDbEntity
  8
1
  6
SOLID
 62
     7
100
AcDbLine
 10
-1403.425933096
 20
456.088741573
 30
0.0
 11
-1387.425933096
 21
456.088741573
 31
0.0
  0
LINE
  5
281
330
1F
100
AcDbEntity
  8
1
  6
SOLID
 62
     7
100
AcDbLine
 10
-1420.425948355
 20
604.749023438
 30
0.0
 11
-1420.425948355
 21
464.748995611
 31
0.0
  0
LINE
  5
282
330
1F
100
AcDbEntity
  8
1
  6
SOLID
 62
     7
100
AcDbLine
 10
-1403.425948355
 20
744.748995611
 30
0.0
 11
-1420.425948355
 21
744.748995611
 31
0.0
  0
LINE
  5
283
330
1F
100
AcDbEntity
  8
1
  6
SOLID
 62
     7
100
AcDbLine
 10
-1342.425948355
 20
721.749023438
 30
0.0
 11
-1342.425948355
 21
741.748934878
 31
0.0
  0
LINE
  5
284
330
1F
100
AcDbEntity
  8
1
  6
SOLID
 62
     7
100
AcDbLine
 10
-1132.813594039
 20
484.249023438
 30
0.0
 11
-1131.425963613
 21
484.249023438
 31
0.0
  0
ARC
  5
285
330
1F
100
AcDbEntity
  8
1
  6
SOLID
 62
     7
100
AcDbCircle
 10
-1407.425933096
 20
446.748995611
 30
0.0
 40
2.0
100
AcDbArc
 50
270.0
 51
0.0
  0
LINE
  5
286
330
1F
100
AcDbEntity
  8
1
  6
SOLID
 62
     7
100
AcDbLine
 10
-1407.425933096
 20
444.748995611
 30
0.0
 11
-1413.425933096
 21
444.748995611
 31
0.0
  0
ARC
  5
287
330
1F
100
AcDbEntity
  8
1
  6
SOLID
 62
     7
100
AcDbCircle
 10
-1413.425933096
 20
446.748995611
 30
0.0
 40
2.0
100
AcDbArc
 50
180.0
 51
270.0
  0
LINE
  5
288
330
1F
100
AcDbEntity
  8
1
  6
SOLID
 62
     7
100
AcDbLine
 10
-1405.425933096
 20
465.74899292
 30
0.0
 11
-1405.425933096
 21
446.748995611
 31
0.0
  0
ARC
  5
289
330
1F
100
AcDbEntity
  8
1
  6
SOLID
 62
     7
100
AcDbCircle
 10
-1408.425991852
 20
782.748876654
 30
0.0
 40
2.0
100
AcDbArc
 50
90.0
 51
180.0
  0
LINE
  5
28A
330
1F
100
AcDbEntity
  8
1
  6
SOLID
 62
     7
100
AcDbLine
 10
-1370.426023716
 20
782.748876654
 30
0.0
 11
-1370.426023716
 21
746.748934878
 31
0.0
  0
ARC
  5
28B
330
1F
100
AcDbEntity
  8
1
  6
SOLID
 62
     7
100
AcDbCircle
 10
-1372.426023716
 20
782.748876654
 30
0.0
 40
2.0
100
AcDbArc
 50
0.0
 51
90.0
  0
LINE
  5
28C
330
1F
100
AcDbEntity
  8
1
  6
SOLID
 62
     7
100
AcDbLine
 10
-1342.425948355
 20
741.748934878
 30
0.0
 11
-1365.426023716
 21
741.748934878
 31
0.0
  0
ARC
  5
28D
330
1F
100
AcDbEntity
  8
1
  6
SOLID
 62
     7
100
AcDbCircle
 10
-1365.426023716
 20
746.748934878
 30
0.0
 40
5.0
100
AcDbArc
 50
180.0
 51
270.0
  0
LINE
  5
28E
330
1F
100
AcDbEntity
  8
1
  6
SOLID
 62
     7
100
AcDbLine
 10
-1338.425993356
 20
736.748934878
 30
0.0
 11
-1342.425948355
 21
736.748934878
 31
0.0
  0
LINE
  5
28F
330
1F
100
AcDbEntity
  8
1
  6
SOLID
 62
     7
100
AcDbLine
 10
-1420.425948355
 20
604.748967785
 30
0.0
 11
-1420.425948355
 21
744.748995611
 31
0.0
  0
LINE
  5
290
330
1F
100
AcDbEntity
  8
1
  6
SOLID
 62
     7
100
AcDbLine
 10
-1370.425948355
 20
782.748940079
 30
0.0
 11
-1370.425948355
 21
746.748998303
 31
0.0
  0
LINE
  5
291
330
1F
100
AcDbEntity
  8
1
  6
SOLID
 62
     7
100
AcDbLine
 10
-1415.425933096
 20
462.748995611
 30
0.0
 11
-1415.425933096
 21
446.748995611
 31
0.0
  0
LINE
  5
292
330
1F
100
AcDbEntity
  8
1
  6
SOLID
 62
     7
100
AcDbLine
 10
-1361.425948355
 20
741.748998303
 30
0.0
 11
-1365.425948355
 21
741.748998303
 31
0.0
  0
ARC
  5
293
330
1F
100
AcDbEntity
  8
1
  6
SOLID
 62
     7
100
AcDbCircle
 10
-1365.425948355
 20
746.748998303
 30
0.0
 40
5.0
100
AcDbArc
 50
180.0
 51
270.0
  0
LINE
  5
294
330
1F
100
AcDbEntity
  8
1
  6
SOLID
 62
     7
100
AcDbLine
 10
-1415.425933096
 20
446.748995611
 30
0.0
 11
-1415.425933096
 21
424.748995611
 31
0.0
  0
LINE
  5
295
330
1F
100
AcDbEntity
  8
1
  6
SOLID
 62
     7
100
AcDbLine
 10
-1097.425655407
 20
671.749023437
 30
0.0
 11
-1097.425655407
 21
604.749023438
 31
0.0
  0
LINE
  5
296
330
1F
100
AcDbEntity
  8
1
  6
L_DASH
 62
     7
100
AcDbLine
 10
-1386.925933096
 20
456.088741573
 30
0.0
 11
-1386.925933096
 21
424.748995611
 31
0.0
  0
LINE
  5
297
330
1F
100
AcDbEntity
  8
1
  6
SOLID
 62
     7
100
AcDbLine
 10
-1415.425933096
 20
424.748995611
 30
0.0
 11
-1365.425933096
 21
424.748995611
 31
0.0
  0
LINE
  5
298
330
1F
100
AcDbEntity
  8
1
  6
L_DASH
 62
     7
100
AcDbLine
 10
-1385.425933096
 20
456.088741573
 30
0.0
 11
-1385.425933096
 21
424.748995611
 31
0.0
  0
LINE
  5
299
330
1F
100
AcDbEntity
  8
1
  6
L_DASH
 62
     7
100
AcDbLine
 10
-1399.925933096
 20
456.088741573
 30
0.0
 11
-1399.925933096
 21
424.748995611
 31
0.0
  0
LINE
  5
29A
330
1F
100
AcDbEntity
  8
1
  6
L_DASH
 62
     7
100
AcDbLine
 10
-1401.425933096
 20
456.088741573
 30
0.0
 11
-1401.425933096
 21
424.748995611
 31
0.0
  0
LINE
  5
29B
330
1F
100
AcDbEntity
  8
1
  6
SOLID
 62
     7
100
AcDbLine
 10
-1385.425933096
 20
464.748995611
 30
0.0
 11
-1367.425933096
 21
464.748995611
 31
0.0
  0
LINE
  5
29C
330
1F
100
AcDbEntity
  8
1
  6
SOLID
 62
     7
100
AcDbLine
 10
-1361.425948355
 20
467.748998303
 30
0.0
 11
-1362.425933096
 21
467.748998303
 31
0.0
  0
LINE
  5
29D
330
1F
100
AcDbEntity
  8
1
  6
SOLID
 62
     7
100
AcDbLine
 10
-1365.425933096
 20
462.748995611
 30
0.0
 11
-1365.425933096
 21
424.748995611
 31
0.0
  0
LINE
  5
29E
330
1F
100
AcDbEntity
  8
1
  6
SOLID
 62
     7
100
AcDbLine
 10
-1342.425948355
 20
467.74899292
 30
0.0
 11
-1403.425933096
 21
467.74899292
 31
0.0
  0
ARC
  5
29F
330
1F
100
AcDbEntity
  8
1
  6
SOLID
 62
     7
100
AcDbCircle
 10
-1417.425933096
 20
462.748995611
 30
0.0
 40
2.0
100
AcDbArc
 50
0.0
 51
90.0
  0
ARC
  5
2A0
330
1F
100
AcDbEntity
  8
1
  6
SOLID
 62
     7
100
AcDbCircle
 10
-1403.425933096
 20
465.74899292
 30
0.0
 40
2.0
100
AcDbArc
 50
90.0
 51
180.0
  0
LINE
  5
2A1
330
1F
100
AcDbEntity
  8
1
  6
SOLID
 62
     7
100
AcDbLine
 10
-1420.425948355
 20
464.748995611
 30
0.0
 11
-1403.425948355
 21
464.748995611
 31
0.0
  0
LINE
  5
2A2
330
1F
100
AcDbEntity
  8
1
  6
SOLID
 62
     7
100
AcDbLine
 10
-637.188534898
 20
563.158837873
 30
0.0
 11
-637.188534898
 21
470.749101156
 31
0.0
  0
ARC
  5
2A3
330
1F
100
AcDbEntity
  8
1
  6
SOLID
 62
     7
100
AcDbCircle
 10
-1112.425963613
 20
739.748998303
 30
0.0
 40
2.0
100
AcDbArc
 50
0.0
 51
90.0
  0
LINE
  5
2A4
330
1F
100
AcDbEntity
  8
1
  6
SOLID
 62
     7
100
AcDbLine
 10
-1132.813594039
 20
505.249023438
 30
0.0
 11
-1131.425963613
 21
505.249023438
 31
0.0
  0
ARC
  5
2A5
330
1F
100
AcDbEntity
  8
1
  6
SOLID
 62
     7
100
AcDbCircle
 10
-1131.425963613
 20
486.249023438
 30
0.0
 40
2.0
100
AcDbArc
 50
270.0
 51
0.0
  0
CIRCLE
  5
2A6
330
1F
100
AcDbEntity
  8
1
  6
SOLID
 62
     7
100
AcDbCircle
 10
-599.688534898
 20
604.749101156
 30
0.0
 40
28.0
  0
LINE
  5
2A7
330
1F
100
AcDbEntity
  8
1
  6
SOLID
 62
     7
100
AcDbLine
 10
-757.188534898
 20
750.749101156
 30
0.0
 11
-757.188534898
 21
470.749101156
 31
0.0
  0
ARC
  5
2A8
330
1F
100
AcDbEntity
  8
1
  6
SOLID
 62
     7
100
AcDbCircle
 10
-1105.425963613
 20
500.748995611
 30
0.0
 40
1.0
100
AcDbArc
 50
270.0
 51
0.0
  0
LINE
  5
2A9
330
1F
100
AcDbEntity
  8
1
  6
SOLID
 62
     7
100
AcDbLine
 10
-1104.425963613
 20
523.749023438
 30
0.0
 11
-1104.425963613
 21
500.748995611
 31
0.0
  0
LINE
  5
2AA
330
1F
100
AcDbEntity
  8
1
  6
SOLID
 62
     7
100
AcDbLine
 10
-1210.425991852
 20
784.748876654
 30
0.0
 11
-1210.425991852
 21
869.748876654
 31
0.0
  0
LINE
  5
2AB
330
1F
100
AcDbEntity
  8
1
  6
SOLID
 62
     7
100
AcDbLine
 10
-1105.425963613
 20
499.748995611
 30
0.0
 11
-1110.425963613
 21
499.748995611
 31
0.0
  0
ARC
  5
2AC
330
1F
100
AcDbEntity
  8
1
  6
SOLID
 62
     7
100
AcDbCircle
 10
-1120.425963613
 20
477.74899292
 30
0.0
 40
10.0
100
AcDbArc
 50
270.0
 51
0.0
  0
LINE
  5
2AD
330
1F
100
AcDbEntity
  8
1
  6
SOLID
 62
     7
100
AcDbLine
 10
-1110.425963613
 20
739.748998303
 30
0.0
 11
-1110.425963613
 21
604.749023438
 31
0.0
  0
ARC
  5
2AE
330
1F
100
AcDbEntity
  8
1
  6
SOLID
 62
     7
100
AcDbCircle
 10
-1105.425963613
 20
708.748995611
 30
0.0
 40
1.0
100
AcDbArc
 50
0.0
 51
90.0
  0
LINE
  5
2AF
330
1F
100
AcDbEntity
  8
1
  6
SOLID
 62
     7
100
AcDbLine
 10
-1104.425963613
 20
685.749023437
 30
0.0
 11
-1104.425963613
 21
708.748995611
 31
0.0
  0
LINE
  5
2B0
330
1F
100
AcDbEntity
  8
1
  6
L_DASH
 62
     7
100
AcDbLine
 10
-1141.425963613
 20
464.748995611
 30
0.0
 11
-1141.425963613
 21
424.748995611
 31
0.0
  0
LINE
  5
2B1
330
1F
100
AcDbEntity
  8
1
  6
L_DASH
 62
     7
100
AcDbLine
 10
-1125.425963613
 20
464.748995611
 30
0.0
 11
-1125.425963613
 21
424.748995611
 31
0.0
  0
LINE
  5
2B2
330
1F
100
AcDbEntity
  8
1
  6
L_DASH
 62
     7
100
AcDbLine
 10
-1139.925963613
 20
464.748995611
 30
0.0
 11
-1139.925963613
 21
424.748995611
 31
0.0
  0
LINE
  5
2B3
330
1F
100
AcDbEntity
  8
1
  6
L_DASH
 62
     7
100
AcDbLine
 10
-1126.925963613
 20
464.748995611
 30
0.0
 11
-1126.925963613
 21
424.748995611
 31
0.0
  0
LINE
  5
2B4
330
1F
100
AcDbEntity
  8
1
  6
L_DASH
 62
     7
100
AcDbLine
 10
-1111.425963613
 20
464.748995611
 30
0.0
 11
-1144.425963613
 21
464.748995611
 31
0.0
  0
LINE
  5
2B5
330
1F
100
AcDbEntity
  8
1
  6
SOLID
 62
     7
100
AcDbLine
 10
-1110.425963613
 20
424.748995611
 30
0.0
 11
-1160.425963613
 21
424.748995611
 31
0.0
  0
LINE
  5
2B6
330
1F
100
AcDbEntity
  8
1
  6
SOLID
 62
     7
100
AcDbLine
 10
-1184.425973887
 20
467.748998303
 30
0.0
 11
-1163.425963613
 21
467.748998303
 31
0.0
  0
ARC
  5
2B7
330
1F
100
AcDbEntity
  8
1
  6
SOLID
 62
     7
100
AcDbCircle
 10
-1140.425963613
 20
462.74899292
 30
0.0
 40
5.0
100
AcDbArc
 50
90.0
 51
180.0
  0
LINE
  5
2B8
330
1F
100
AcDbEntity
  8
1
  6
SOLID
 62
     7
100
AcDbLine
 10
-1184.425948355
 20
741.748998303
 30
0.0
 11
-1112.425963613
 21
741.748998303
 31
0.0
  0
LINE
  5
2B9
330
1F
100
AcDbEntity
  8
1
  6
SOLID
 62
     7
100
AcDbLine
 10
-1115.669896046
 20
456.088741573
 30
0.0
 11
-1143.478564206
 21
456.088741573
 31
0.0
  0
LINE
  5
2BA
330
1F
100
AcDbEntity
  8
1
  6
SOLID
 62
     7
100
AcDbLine
 10
-1140.425963613
 20
467.74899292
 30
0.0
 11
-1120.425963613
 21
467.74899292
 31
0.0
  0
ARC
  5
2BB
330
1F
100
AcDbEntity
  8
1
  6
SOLID
 62
     7
100
AcDbCircle
 10
-1163.425963613
 20
464.748998303
 30
0.0
 40
3.0
100
AcDbArc
 50
0.0
 51
90.0
  0
LINE
  5
2BC
330
1F
100
AcDbEntity
  8
1
  6
SOLID
 62
     7
100
AcDbLine
 10
-1160.425963613
 20
589.749023438
 30
0.0
 11
-1160.425963613
 21
424.748995611
 31
0.0
  0
ARC
  5
2BD
330
1F
100
AcDbEntity
  8
1
  6
SOLID
 62
     7
100
AcDbCircle
 10
-1158.425963613
 20
446.748995611
 30
0.0
 40
2.0
100
AcDbArc
 50
180.0
 51
270.0
  0
LINE
  5
2BE
330
1F
100
AcDbEntity
  8
1
  6
SOLID
 62
     7
100
AcDbLine
 10
-1158.425963613
 20
444.748995611
 30
0.0
 11
-1147.425963613
 21
444.748995611
 31
0.0
  0
ARC
  5
2BF
330
1F
100
AcDbEntity
  8
1
  6
SOLID
 62
     7
100
AcDbCircle
 10
-1147.425963613
 20
446.748995611
 30
0.0
 40
2.0
100
AcDbArc
 50
270.0
 51
0.0
  0
LINE
  5
2C0
330
1F
100
AcDbEntity
  8
1
  6
SOLID
 62
     7
100
AcDbLine
 10
-1145.425963613
 20
589.749023438
 30
0.0
 11
-1145.425963613
 21
446.748995611
 31
0.0
  0
LINE
  5
2C1
330
1F
100
AcDbEntity
  8
1
  6
SOLID
 62
     7
100
AcDbLine
 10
-1184.425973701
 20
468.749020409
 30
0.0
 11
-1184.425972955
 21
472.749020409
 31
0.0
  0
LINE
  5
2C2
330
1F
100
AcDbEntity
  8
1
  6
SOLID
 62
     7
100
AcDbLine
 10
-1105.425963613
 20
709.748995611
 30
0.0
 11
-1106.425963613
 21
709.748995611
 31
0.0
  0
LINE
  5
2C3
330
1F
100
AcDbEntity
  8
1
  6
SOLID
 62
     7
100
AcDbLine
 10
-1188.425948355
 20
717.349019328
 30
0.0
 11
-1188.425948355
 21
604.749023438
 31
0.0
  0
ARC
  5
2C4
330
1F
100
AcDbEntity
  8
1
  6
SOLID
 62
     7
100
AcDbCircle
 10
-1131.425963613
 20
503.249023438
 30
0.0
 40
2.0
100
AcDbArc
 50
0.0
 51
90.0
  0
LINE
  5
2C5
330
1F
100
AcDbEntity
  8
1
  6
SOLID
 62
     7
100
AcDbLine
 10
-1210.425991852
 20
869.748876654
 30
0.0
 11
-1410.425991852
 21
869.748876654
 31
0.0
  0
LINE
  5
2C6
330
1F
100
AcDbEntity
  8
1
  6
SOLID
 62
     7
100
AcDbLine
 10
-1338.425993356
 20
717.349019328
 30
0.0
 11
-1338.425993356
 21
604.749023438
 31
0.0
  0
LINE
  5
2C7
330
1F
100
AcDbEntity
  8
1
  6
SOLID
 62
     7
100
AcDbLine
 10
-1338.425993356
 20
291.749023438
 30
0.0
 11
-1265.750096945
 21
291.749023438
 31
0.0
  0
LINE
  5
2C8
330
1F
100
AcDbEntity
  8
1
  6
SOLID
 62
     7
100
AcDbLine
 10
-1188.425972955
 20
472.74899292
 30
0.0
 11
-1184.425972955
 21
472.74899292
 31
0.0
  0
LINE
  5
2C9
330
1F
100
AcDbEntity
  8
1
  6
SOLID
 62
     7
100
AcDbLine
 10
-1184.425948355
 20
707.749023438
 30
0.0
 11
-1184.425948355
 21
604.749023438
 31
0.0
  0
LINE
  5
2CA
330
1F
100
AcDbEntity
  8
1
  6
SOLID
 62
     7
100
AcDbLine
 10
-1110.425963613
 20
499.748995611
 30
0.0
 11
-1110.425963613
 21
424.748995611
 31
0.0
  0
LINE
  5
2CB
330
1F
100
AcDbEntity
  8
1
  6
SOLID
 62
     7
100
AcDbLine
 10
-1338.425968756
 20
472.74899292
 30
0.0
 11
-1342.425948355
 21
472.74899292
 31
0.0
  0
LINE
  5
2CC
330
1F
100
AcDbEntity
  8
1
  6
SOLID
 62
     7
100
AcDbLine
 10
-1125.425963613
 20
501.749023438
 30
0.0
 11
-1125.425963613
 21
487.749023438
 31
0.0
  0
LINE
  5
2CD
330
1F
100
AcDbEntity
  8
1
  6
SOLID
 62
     7
100
AcDbLine
 10
-1129.425963613
 20
488.949023485
 30
0.0
 11
-1124.425963613
 21
488.949023485
 31
0.0
  0
LINE
  5
2CE
330
1F
100
AcDbEntity
  8
1
  6
SOLID
 62
     7
100
AcDbLine
 10
-599.688537598
 20
772.25457716
 30
0.0
 11
-606.188537762
 21
768.501800248
 31
0.0
  0
LINE
  5
2CF
330
1F
100
AcDbEntity
  8
1
  6
SOLID
 62
     7
100
AcDbLine
 10
-593.188537598
 20
768.501800299
 30
0.0
 11
-599.688537762
 21
772.25457721
 31
0.0
  0
LINE
  5
2D0
330
1F
100
AcDbEntity
  8
1
  6
CENTER
 62
     7
100
AcDbLine
 10
-1182.988699729
 20
714.749023438
 30
0.0
 11
-1117.329604125
 21
714.749023438
 31
0.0
  0
LINE
  5
2D1
330
1F
100
AcDbEntity
  8
1
  6
SOLID
 62
     7
100
AcDbLine
 10
-1160.425963613
 20
619.749023438
 30
0.0
 11
-1160.425963613
 21
739.748998303
 31
0.0
  0
ARC
  5
2D2
330
1F
100
AcDbEntity
  8
1
  6
SOLID
 62
     7
100
AcDbCircle
 10
-1158.425963613
 20
739.748998303
 30
0.0
 40
2.0
100
AcDbArc
 50
90.0
 51
180.0
  0
LINE
  5
2D3
330
1F
100
AcDbEntity
  8
1
  6
SOLID
 62
     7
100
AcDbLine
 10
-1158.425963613
 20
741.748998303
 30
0.0
 11
-1147.425963613
 21
741.748998303
 31
0.0
  0
ARC
  5
2D4
330
1F
100
AcDbEntity
  8
1
  6
SOLID
 62
     7
100
AcDbCircle
 10
-1147.425963613
 20
739.748998303
 30
0.0
 40
2.0
100
AcDbArc
 50
0.0
 51
90.0
  0
LINE
  5
2D5
330
1F
100
AcDbEntity
  8
1
  6
SOLID
 62
     7
100
AcDbLine
 10
-1145.425963613
 20
619.749023438
 30
0.0
 11
-1145.425963613
 21
739.748998303
 31
0.0
  0
LINE
  5
2D6
330
1F
100
AcDbEntity
  8
1
  6
SOLID
 62
     7
100
AcDbLine
 10
-1265.750096945
 20
721.749023438
 30
0.0
 11
-1160.425963613
 21
721.749023438
 31
0.0
  0
LINE
  5
2D7
330
1F
100
AcDbEntity
  8
1
  6
SOLID
 62
     7
100
AcDbLine
 10
-1188.425948355
 20
707.749023438
 30
0.0
 11
-1160.425963613
 21
707.749023438
 31
0.0
  0
LINE
  5
2D8
330
1F
100
AcDbEntity
  8
1
  6
SOLID
 62
     7
100
AcDbLine
 10
-1184.425948355
 20
741.748998303
 30
0.0
 11
-1184.425948355
 21
721.749023438
 31
0.0
  0
LINE
  5
2D9
330
1F
100
AcDbEntity
  8
1
  6
SOLID
 62
     7
100
AcDbLine
 10
-1265.750096945
 20
717.349019328
 30
0.0
 11
-1188.425948355
 21
717.349019328
 31
0.0
  0
LINE
  5
2DA
330
1F
100
AcDbEntity
  8
1
  6
SOLID
 62
     7
100
AcDbLine
 10
-1390.625933647
 20
707.749023438
 30
0.0
 11
-1338.425993356
 21
707.749023438
 31
0.0
  0
LINE
  5
2DB
330
1F
100
AcDbEntity
  8
1
  6
SOLID
 62
     7
100
AcDbLine
 10
-1129.425963613
 20
500.54902339
 30
0.0
 11
-1124.425963613
 21
500.54902339
 31
0.0
  0
ARC
  5
2DC
330
1F
100
AcDbEntity
  8
1
  6
SOLID
 62
     7
100
AcDbCircle
 10
-1170.425963613
 20
619.749023438
 30
0.0
 40
10.0
100
AcDbArc
 50
302.093034625
 51
0.0
  0
LINE
  5
2DD
330
1F
100
AcDbEntity
  8
1
  6
SOLID
 62
     7
100
AcDbLine
 10
-1124.425963613
 20
500.749023438
 30
0.0
 11
-1124.425963613
 21
488.749023438
 31
0.0
  0
LINE
  5
2DE
330
1F
100
AcDbEntity
  8
1
  6
SOLID
 62
     7
100
AcDbLine
 10
-1125.425963613
 20
487.749023438
 30
0.0
 11
-1124.425963613
 21
488.749023437
 31
0.0
  0
ARC
  5
2DF
330
1F
100
AcDbEntity
  8
1
  6
SOLID
 62
     7
100
AcDbCircle
 10
-1135.425963613
 20
619.749023438
 30
0.0
 40
10.0
100
AcDbArc
 50
180.0
 51
234.685305238
  0
LINE
  5
2E0
330
1F
100
AcDbEntity
  8
1
  6
SOLID
 62
     7
100
AcDbLine
 10
-1125.425963613
 20
501.749023438
 30
0.0
 11
-1124.425963613
 21
500.749023438
 31
0.0
  0
LINE
  5
2E1
330
1F
100
AcDbEntity
  8
1
  6
SOLID
 62
     7
100
AcDbLine
 10
-1547.95338945
 20
196.168398296
 30
0.0
 11
-1545.04638162
 21
196.168398296
 31
0.0
  0
ARC
  5
2E2
330
1F
100
AcDbEntity
  8
1
  6
SOLID
 62
     7
100
AcDbCircle
 10
-1170.425963613
 20
589.749023438
 30
0.0
 40
10.0
100
AcDbArc
 50
0.0
 51
63.661444203
  0
LINE
  5
2E3
330
1F
100
AcDbEntity
  8
1
  6
CENTER
 62
     7
100
AcDbLine
 10
-1016.425655407
 20
244.749023438
 30
0.0
 11
-1016.425655407
 21
154.749023438
 31
0.0
  0
ARC
  5
2E4
330
1F
100
AcDbEntity
  8
1
  6
SOLID
 62
     7
100
AcDbCircle
 10
-1135.425963613
 20
589.749023438
 30
0.0
 40
10.0
100
AcDbArc
 50
125.235881258
 51
180.0
  0
LINE
  5
2E5
330
1F
100
AcDbEntity
  8
1
  6
SOLID
 62
     7
100
AcDbLine
 10
-1548.34638174
 20
197.438568893
 30
0.0
 11
-1548.34638174
 21
205.059592474
 31
0.0
  0
LINE
  5
2E6
330
1F
100
AcDbEntity
  8
1
  6
SOLID
 62
     7
100
AcDbLine
 10
-1265.750096945
 20
287.119144386
 30
0.0
 11
-1188.425948355
 21
287.119144386
 31
0.0
  0
LINE
  5
2E7
330
1F
100
AcDbEntity
  8
1
  6
SOLID
 62
     7
100
AcDbLine
 10
-1265.750096945
 20
278.836432935
 30
0.0
 11
-1188.425948355
 21
278.836432935
 31
0.0
  0
LINE
  5
2E8
330
1F
100
AcDbEntity
  8
1
  6
SOLID
 62
     7
100
AcDbLine
 10
-1110.425963613
 20
19.749048572
 30
0.0
 11
-1110.425963613
 21
154.749023438
 31
0.0
  0
LINE
  5
2E9
330
1F
100
AcDbEntity
  8
1
  6
SOLID
 62
     7
100
AcDbLine
 10
-1184.425948355
 20
17.749048572
 30
0.0
 11
-1112.425963613
 21
17.749048572
 31
0.0
  0
LINE
  5
2EA
330
1F
100
AcDbEntity
  8
1
  6
SOLID
 62
     7
100
AcDbLine
 10
-1160.425963613
 20
138.624064281
 30
0.0
 11
-1160.425963613
 21
19.749048572
 31
0.0
  0
LINE
  5
2EB
330
1F
100
AcDbEntity
  8
1
  6
SOLID
 62
     7
100
AcDbLine
 10
-569.688534898
 20
791.749045624
 30
0.0
 11
-569.688534898
 21
786.749045624
 31
0.0
  0
LINE
  5
2EC
330
1F
100
AcDbEntity
  8
1
  6
SOLID
 62
     7
100
AcDbLine
 10
-629.688534898
 20
791.749045624
 30
0.0
 11
-629.688534898
 21
786.749045624
 31
0.0
  0
LINE
  5
2ED
330
1F
100
AcDbEntity
  8
1
  6
SOLID
 62
     7
100
AcDbLine
 10
-1140.425948355
 20
809.748998303
 30
0.0
 11
-1145.425948355
 21
809.748998303
 31
0.0
  0
LINE
  5
2EE
330
1F
100
AcDbEntity
  8
1
  6
SOLID
 62
     7
100
AcDbLine
 10
-1151.547268698
 20
747.627677959
 30
0.0
 11
-1146.304628011
 21
752.870318647
 31
0.0
  0
ARC
  5
2EF
330
1F
100
AcDbEntity
  8
1
  6
SOLID
 62
     7
100
AcDbCircle
 10
-1158.425963613
 20
19.749048572
 30
0.0
 40
2.0
100
AcDbArc
 50
180.0
 51
270.0
  0
LINE
  5
2F0
330
1F
100
AcDbEntity
  8
1
  6
SOLID
 62
     7
100
AcDbLine
 10
-1158.425963613
 20
17.749048572
 30
0.0
 11
-1147.425963613
 21
17.749048572
 31
0.0
  0
CIRCLE
  5
2F1
330
1F
100
AcDbEntity
  8
1
  6
SOLID
 62
     7
100
AcDbCircle
 10
-599.688534898
 20
604.749101156
 30
0.0
 40
28.0
  0
ARC
  5
2F2
330
1F
100
AcDbEntity
  8
1
  6
SOLID
 62
     7
100
AcDbCircle
 10
-1147.425963613
 20
19.749048572
 30
0.0
 40
2.0
100
AcDbArc
 50
270.0
 51
0.0
  0
LINE
  5
2F3
330
1F
100
AcDbEntity
  8
1
  6
SOLID
 62
     7
100
AcDbLine
 10
-1145.425963613
 20
134.648615992
 30
0.0
 11
-1145.425963613
 21
19.749048572
 31
0.0
  0
LINE
  5
2F4
330
1F
100
AcDbEntity
  8
1
  6
SOLID
 62
     7
100
AcDbLine
 10
-1148.011734792
 20
744.092144054
 30
0.0
 11
-1142.769094105
 21
749.334784741
 31
0.0
  0
LINE
  5
2F5
330
1F
100
AcDbEntity
  8
1
  6
SOLID
 62
     7
100
AcDbLine
 10
-1153.668589042
 20
17.749048572
 30
0.0
 11
-1175.425948355
 21
17.749048572
 31
0.0
  0
LINE
  5
2F6
330
1F
100
AcDbEntity
  8
1
  6
SOLID
 62
     7
100
AcDbLine
 10
-1129.425963613
 20
721.749023438
 30
0.0
 11
-1125.425963613
 21
721.749023438
 31
0.0
  0
LINE
  5
2F7
330
1F
100
AcDbEntity
  8
1
  6
SOLID
 62
     7
100
AcDbLine
 10
-1129.425963613
 20
707.749023438
 30
0.0
 11
-1125.425963613
 21
707.749023438
 31
0.0
  0
LINE
  5
2F8
330
1F
100
AcDbEntity
  8
1
  6
SOLID
 62
     7
100
AcDbLine
 10
-1129.425963613
 20
706.249023438
 30
0.0
 11
-1129.425963613
 21
723.249023438
 31
0.0
  0
LINE
  5
2F9
330
1F
100
AcDbEntity
  8
1
  6
SOLID
 62
     7
100
AcDbLine
 10
-1132.813594039
 20
725.249023438
 30
0.0
 11
-1131.425963613
 21
725.249023438
 31
0.0
  0
LINE
  5
2FA
330
1F
100
AcDbEntity
  8
1
  6
SOLID
 62
     7
100
AcDbLine
 10
-1132.813594039
 20
704.249023438
 30
0.0
 11
-1131.425963613
 21
704.249023438
 31
0.0
  0
CIRCLE
  5
2FB
330
1F
100
AcDbEntity
  8
1
  6
SOLID
 62
     7
100
AcDbCircle
 10
-599.688534898
 20
604.749101156
 30
0.0
 40
32.5
  0
ARC
  5
2FC
330
1F
100
AcDbEntity
  8
1
  6
SOLID
 62
     7
100
AcDbCircle
 10
-1131.425963613
 20
723.249023438
 30
0.0
 40
2.0
100
AcDbArc
 50
0.0
 51
90.0
  0
LINE
  5
2FD
330
1F
100
AcDbEntity
  8
1
  6
SOLID
 62
     7
100
AcDbLine
 10
-582.150785078
 20
776.749045624
 30
0.0
 11
-617.100259278
 21
776.749045624
 31
0.0
  0
LINE
  5
2FE
330
1F
100
AcDbEntity
  8
1
  6
SOLID
 62
     7
100
AcDbLine
 10
-1140.425948355
 20
754.99163899
 30
0.0
 11
-1140.425948355
 21
809.748998303
 31
0.0
  0
ARC
  5
2FF
330
1F
100
AcDbEntity
  8
1
  6
SOLID
 62
     7
100
AcDbCircle
 10
-1131.425963613
 20
706.249023438
 30
0.0
 40
2.0
100
AcDbArc
 50
270.0
 51
0.0
  0
LINE
  5
300
330
1F
100
AcDbEntity
  8
1
  6
SOLID
 62
     7
100
AcDbLine
 10
-1125.425963613
 20
707.749023438
 30
0.0
 11
-1125.425963613
 21
721.749023438
 31
0.0
  0
LINE
  5
301
330
1F
100
AcDbEntity
  8
1
  6
SOLID
 62
     7
100
AcDbLine
 10
-1129.425963613
 20
720.54902339
 30
0.0
 11
-1124.425963613
 21
720.54902339
 31
0.0
  0
LINE
  5
302
330
1F
100
AcDbEntity
  8
1
  6
SOLID
 62
     7
100
AcDbLine
 10
-1129.425963613
 20
708.949023485
 30
0.0
 11
-1124.425963613
 21
708.949023485
 31
0.0
  0
LINE
  5
303
330
1F
100
AcDbEntity
  8
1
  6
SOLID
 62
     7
100
AcDbLine
 10
-1124.425963613
 20
708.749023438
 30
0.0
 11
-1124.425963613
 21
720.749023438
 31
0.0
  0
LINE
  5
304
330
1F
100
AcDbEntity
  8
1
  6
SOLID
 62
     7
100
AcDbLine
 10
-1125.425963613
 20
721.749023438
 30
0.0
 11
-1124.425963613
 21
720.749023438
 31
0.0
  0
LINE
  5
305
330
1F
100
AcDbEntity
  8
1
  6
SOLID
 62
     7
100
AcDbLine
 10
-1125.425963613
 20
707.749023438
 30
0.0
 11
-1124.425963613
 21
708.749023437
 31
0.0
  0
LINE
  5
306
330
1F
100
AcDbEntity
  8
1
  6
SOLID
 62
     7
100
AcDbLine
 10
-617.464902765
 20
776.675887713
 30
0.0
 11
-620.77466461
 21
786.749045624
 31
0.0
  0
LINE
  5
307
330
1F
100
AcDbEntity
  8
1
  6
SOLID
 62
     7
100
AcDbLine
 10
-1145.425948355
 20
754.99163899
 30
0.0
 11
-1145.425948355
 21
809.748998303
 31
0.0
  0
LINE
  5
308
330
1F
100
AcDbEntity
  8
1
  6
SOLID
 62
     7
100
AcDbLine
 10
-1175.425948355
 20
741.748998303
 30
0.0
 11
-1175.425948355
 21
746.748998303
 31
0.0
  0
LINE
  5
309
330
1F
100
AcDbEntity
  8
1
  6
SOLID
 62
     7
100
AcDbLine
 10
-586.688534898
 20
753.749045624
 30
0.0
 11
-581.912167032
 21
776.675887713
 31
0.0
  0
LINE
  5
30A
330
1F
100
AcDbEntity
  8
1
  6
SOLID
 62
     7
100
AcDbLine
 10
-612.688534898
 20
753.749045624
 30
0.0
 11
-617.464902765
 21
776.675887713
 31
0.0
  0
LINE
  5
30B
330
1F
100
AcDbEntity
  8
1
  6
CENTER
 62
     7
100
AcDbLine
 10
-1393.425933096
 20
456.088741573
 30
0.0
 11
-1393.425933096
 21
424.748995611
 31
0.0
  0
LINE
  5
30C
330
1F
100
AcDbEntity
  8
1
  6
SOLID
 62
     7
100
AcDbLine
 10
-1153.668589042
 20
741.748998303
 30
0.0
 11
-1175.425948355
 21
741.748998303
 31
0.0
  0
LINE
  5
30D
330
1F
100
AcDbEntity
  8
1
  6
SOLID
 62
     7
100
AcDbLine
 10
-569.688534898
 20
791.749045624
 30
0.0
 11
-629.688534898
 21
791.749045624
 31
0.0
  0
LINE
  5
30E
330
1F
100
AcDbEntity
  8
1
  6
SOLID
 62
     7
100
AcDbLine
 10
-569.688534898
 20
786.749045624
 30
0.0
 11
-629.688534898
 21
786.749045624
 31
0.0
  0
LINE
  5
30F
330
1F
100
AcDbEntity
  8
1
  6
CENTER
 62
     7
100
AcDbLine
 10
-583.440869214
 20
764.749045624
 30
0.0
 11
-614.645290569
 21
764.749045624
 31
0.0
  0
LINE
  5
310
330
1F
100
AcDbEntity
  8
1
  6
SOLID
 62
     7
100
AcDbLine
 10
-1423.668632539
 20
783.749045624
 30
0.0
 11
-1478.425991852
 21
783.749045624
 31
0.0
  0
LINE
  5
311
330
1F
100
AcDbEntity
  8
1
  6
SOLID
 62
     7
100
AcDbLine
 10
-1137.425948355
 20
124.749023438
 30
0.0
 11
-1142.425948355
 21
124.749023438
 31
0.0
  0
LINE
  5
312
330
1F
100
AcDbEntity
  8
1
  6
SOLID
 62
     7
100
AcDbLine
 10
-1137.425948355
 20
184.749023438
 30
0.0
 11
-1142.425948355
 21
184.749023438
 31
0.0
  0
LINE
  5
313
330
1F
100
AcDbEntity
  8
1
  6
SOLID
 62
     7
100
AcDbLine
 10
-1152.425948355
 20
137.211273617
 30
0.0
 11
-1152.425948355
 21
172.160747817
 31
0.0
  0
LINE
  5
314
330
1F
100
AcDbEntity
  8
1
  6
SOLID
 62
     7
100
AcDbLine
 10
-1152.499106265
 20
172.525391304
 30
0.0
 11
-1142.425948355
 21
175.835153149
 31
0.0
  0
LINE
  5
315
330
1F
100
AcDbEntity
  8
1
  6
SOLID
 62
     7
100
AcDbLine
 10
-1175.425948355
 20
141.749023438
 30
0.0
 11
-1152.499106265
 21
136.972655571
 31
0.0
  0
LINE
  5
316
330
1F
100
AcDbEntity
  8
1
  6
SOLID
 62
     7
100
AcDbLine
 10
-1410.425991852
 20
753.749045624
 30
0.0
 11
-1415.425991852
 21
753.749045624
 31
0.0
  0
LINE
  5
317
330
1F
100
AcDbEntity
  8
1
  6
SOLID
 62
     7
100
AcDbLine
 10
-1153.668589042
 20
746.748998303
 30
0.0
 11
-1175.425948355
 21
746.748998303
 31
0.0
  0
LINE
  5
318
330
1F
100
AcDbEntity
  8
1
  6
CENTER
 62
     7
100
AcDbLine
 10
-1164.425948355
 20
733.602425083
 30
0.0
 11
-1164.425948355
 21
750.735503752
 31
0.0
  0
ARC
  5
319
330
1F
100
AcDbEntity
  8
1
  6
SOLID
 62
     7
100
AcDbCircle
 10
-1153.668589042
 20
749.748998303
 30
0.0
 40
3.0
100
AcDbArc
 50
270.0
 51
315.0
  0
ARC
  5
31A
330
1F
100
AcDbEntity
  8
1
  6
SOLID
 62
     7
100
AcDbCircle
 10
-1153.668589042
 20
749.748998303
 30
0.0
 40
8.0
100
AcDbArc
 50
270.0
 51
315.0
  0
ARC
  5
31B
330
1F
100
AcDbEntity
  8
1
  6
SOLID
 62
     7
100
AcDbCircle
 10
-1148.425948355
 20
754.99163899
 30
0.0
 40
8.0
100
AcDbArc
 50
315.0
 51
0.0
  0
ARC
  5
31C
330
1F
100
AcDbEntity
  8
1
  6
SOLID
 62
     7
100
AcDbCircle
 10
-1148.425948355
 20
754.99163899
 30
0.0
 40
3.0
100
AcDbArc
 50
315.0
 51
0.0
  0
LINE
  5
31D
330
1F
100
AcDbEntity
  8
1
  6
SOLID
 62
     7
100
AcDbLine
 10
-581.912167032
 20
776.675887713
 30
0.0
 11
-578.602405187
 21
786.749045624
 31
0.0
  0
LINE
  5
31E
330
1F
100
AcDbEntity
  8
1
  6
CENTER
 62
     7
100
AcDbLine
 10
-1133.425963613
 20
464.748995611
 30
0.0
 11
-1133.425963613
 21
424.748995611
 31
0.0
  0
LINE
  5
31F
330
1F
100
AcDbEntity
  8
1
  6
SOLID
 62
     7
100
AcDbLine
 10
-1265.750096945
 20
276.127711437
 30
0.0
 11
-1188.425948355
 21
276.127711437
 31
0.0
  0
LINE
  5
320
330
1F
100
AcDbEntity
  8
1
  6
SOLID
 62
     7
100
AcDbLine
 10
-1265.750096945
 20
37.749023438
 30
0.0
 11
-1160.425963613
 21
37.749023438
 31
0.0
  0
LINE
  5
321
330
1F
100
AcDbEntity
  8
1
  6
SOLID
 62
     7
100
AcDbLine
 10
-1265.750096945
 20
30.66161394
 30
0.0
 11
-1188.425948355
 21
30.66161394
 31
0.0
  0
LINE
  5
322
330
1F
100
AcDbEntity
  8
1
  6
SOLID
 62
     7
100
AcDbLine
 10
-1265.750096945
 20
254.108222
 30
0.0
 11
-1188.425948355
 21
254.108222
 31
0.0
  0
LINE
  5
323
330
1F
100
AcDbEntity
  8
1
  6
SOLID
 62
     7
100
AcDbLine
 10
-1265.750096945
 20
251.389824875
 30
0.0
 11
-1188.425948355
 21
251.389824875
 31
0.0
  0
LINE
  5
324
330
1F
100
AcDbEntity
  8
1
  6
SOLID
 62
     7
100
AcDbLine
 10
-1265.750096945
 20
240.108222
 30
0.0
 11
-1188.425948355
 21
240.108222
 31
0.0
  0
LINE
  5
325
330
1F
100
AcDbEntity
  8
1
  6
SOLID
 62
     7
100
AcDbLine
 10
-1265.750096945
 20
237.389824875
 30
0.0
 11
-1188.425948355
 21
237.389824875
 31
0.0
  0
LINE
  5
326
330
1F
100
AcDbEntity
  8
1
  6
SOLID
 62
     7
100
AcDbLine
 10
-586.688534898
 20
753.749045624
 30
0.0
 11
-612.688534898
 21
753.749045624
 31
0.0
  0
LINE
  5
327
330
1F
100
AcDbEntity
  8
1
  6
SOLID
 62
     7
100
AcDbLine
 10
-1175.425948355
 20
167.749023438
 30
0.0
 11
-1152.499106265
 21
172.525391304
 31
0.0
  0
LINE
  5
328
330
1F
100
AcDbEntity
  8
1
  6
SOLID
 62
     7
100
AcDbLine
 10
-1137.425948355
 20
124.749023438
 30
0.0
 11
-1137.425948355
 21
184.749023438
 31
0.0
  0
LINE
  5
329
330
1F
100
AcDbEntity
  8
1
  6
SOLID
 62
     7
100
AcDbLine
 10
-1265.750096945
 20
33.370335438
 30
0.0
 11
-1188.425948355
 21
33.370335438
 31
0.0
  0
LINE
  5
32A
330
1F
100
AcDbEntity
  8
1
  6
SOLID
 62
     7
100
AcDbLine
 10
-1221.425991852
 20
217.249015513
 30
0.0
 11
-1221.425991852
 21
227.749023438
 31
0.0
  0
LINE
  5
32B
330
1F
100
AcDbEntity
  8
1
  6
SOLID
 62
     7
100
AcDbLine
 10
-1210.425991852
 20
223.389824875
 30
0.0
 11
-1188.425948355
 21
223.389824875
 31
0.0
  0
LINE
  5
32C
330
1F
100
AcDbEntity
  8
1
  6
SOLID
 62
     7
100
AcDbLine
 10
-1210.425991852
 20
226.108222
 30
0.0
 11
-1188.425948355
 21
226.108222
 31
0.0
  0
LINE
  5
32D
330
1F
100
AcDbEntity
  8
1
  6
SOLID
 62
     7
100
AcDbLine
 10
-1210.425991852
 20
212.108222
 30
0.0
 11
-1188.425948355
 21
212.108222
 31
0.0
  0
LINE
  5
32E
330
1F
100
AcDbEntity
  8
1
  6
CENTER
 62
     7
100
AcDbLine
 10
-1002.425655407
 20
244.749023438
 30
0.0
 11
-1002.425655407
 21
154.749023438
 31
0.0
  0
LINE
  5
32F
330
1F
100
AcDbEntity
  8
1
  6
SOLID
 62
     7
100
AcDbLine
 10
-1158.610923163
 20
746.748999045
 30
0.0
 11
-1158.610923163
 21
747.148999051
 31
0.0
  0
LINE
  5
330
330
1F
100
AcDbEntity
  8
1
  6
SOLID
 62
     7
100
AcDbLine
 10
-1170.240923277
 20
746.748999045
 30
0.0
 11
-1158.610923163
 21
746.748999045
 31
0.0
  0
LINE
  5
331
330
1F
100
AcDbEntity
  8
1
  6
SOLID
 62
     7
100
AcDbLine
 10
-1170.240923277
 20
747.148999051
 30
0.0
 11
-1170.240923277
 21
746.748999045
 31
0.0
  0
LINE
  5
332
330
1F
100
AcDbEntity
  8
1
  6
SOLID
 62
     7
100
AcDbLine
 10
-1170.055088512
 20
752.048999236
 30
0.0
 11
-1158.796757928
 21
752.048999236
 31
0.0
  0
ARC
  5
333
330
1F
100
AcDbEntity
  8
1
  6
SOLID
 62
     7
100
AcDbCircle
 10
-1170.055088512
 20
748.726429707
 30
0.0
 40
3.322569529
100
AcDbArc
 50
55.615750846
 51
124.384249154
  0
LINE
  5
334
330
1F
100
AcDbEntity
  8
1
  6
SOLID
 62
     7
100
AcDbLine
 10
-1168.178700081
 20
751.468442605
 30
0.0
 11
-1168.178700081
 21
747.148999051
 31
0.0
  0
ARC
  5
335
330
1F
100
AcDbEntity
  8
1
  6
SOLID
 62
     7
100
AcDbCircle
 10
-1164.42592322
 20
739.629556067
 30
0.0
 40
12.419443168
100
AcDbArc
 50
72.412045324
 51
107.587954676
  0
LINE
  5
336
330
1F
100
AcDbEntity
  8
1
  6
SOLID
 62
     7
100
AcDbLine
 10
-1160.673146359
 20
751.468442605
 30
0.0
 11
-1160.673146359
 21
747.148999051
 31
0.0
  0
ARC
  5
337
330
1F
100
AcDbEntity
  8
1
  6
SOLID
 62
     7
100
AcDbCircle
 10
-1158.796757928
 20
748.726429707
 30
0.0
 40
3.322569529
100
AcDbArc
 50
55.615750846
 51
124.384249154
  0
LINE
  5
338
330
1F
100
AcDbEntity
  8
1
  6
SOLID
 62
     7
100
AcDbLine
 10
-1156.920369498
 20
747.148999051
 30
0.0
 11
-1156.920369498
 21
751.468442605
 31
0.0
  0
LINE
  5
339
330
1F
100
AcDbEntity
  8
1
  6
SOLID
 62
     7
100
AcDbLine
 10
-1171.931476942
 20
747.148999051
 30
0.0
 11
-1156.920369498
 21
747.148999051
 31
0.0
  0
LINE
  5
33A
330
1F
100
AcDbEntity
  8
1
  6
SOLID
 62
     7
100
AcDbLine
 10
-1171.931476942
 20
751.468442605
 30
0.0
 11
-1171.931476942
 21
747.148999051
 31
0.0
  0
LINE
  5
33B
330
1F
100
AcDbEntity
  8
1
  6
CENTER
 62
     7
100
AcDbLine
 10
-988.425655407
 20
244.749023438
 30
0.0
 11
-988.425655407
 21
154.749023438
 31
0.0
  0
LINE
  5
33C
330
1F
100
AcDbEntity
  8
1
  6
CENTER
 62
     7
100
AcDbLine
 10
-1030.425655407
 20
87.749023438
 30
0.0
 11
-1030.425655407
 21
154.749023438
 31
0.0
  0
LINE
  5
33D
330
1F
100
AcDbEntity
  8
1
  6
CENTER
 62
     7
100
AcDbLine
 10
-1016.425655407
 20
87.749023438
 30
0.0
 11
-1016.425655407
 21
154.749023438
 31
0.0
  0
LINE
  5
33E
330
1F
100
AcDbEntity
  8
1
  6
CENTER
 62
     7
100
AcDbLine
 10
-1002.425655407
 20
87.749023438
 30
0.0
 11
-1002.425655407
 21
154.749023438
 31
0.0
  0
LINE
  5
33F
330
1F
100
AcDbEntity
  8
1
  6
CENTER
 62
     7
100
AcDbLine
 10
-988.425655407
 20
87.749023438
 30
0.0
 11
-988.425655407
 21
154.749023438
 31
0.0
  0
LINE
  5
340
330
1F
100
AcDbEntity
  8
1
  6
CENTER
 62
     7
100
AcDbLine
 10
-1044.425655407
 20
87.749023438
 30
0.0
 11
-1044.425655407
 21
154.749023438
 31
0.0
  0
LINE
  5
341
330
1F
100
AcDbEntity
  8
1
  6
CENTER
 62
     7
100
AcDbLine
 10
-1058.425655407
 20
87.749023438
 30
0.0
 11
-1058.425655407
 21
154.749023438
 31
0.0
  0
LINE
  5
342
330
1F
100
AcDbEntity
  8
1
  6
CENTER
 62
     7
100
AcDbLine
 10
-1072.425655407
 20
87.749023438
 30
0.0
 11
-1072.425655407
 21
154.749023438
 31
0.0
  0
LINE
  5
343
330
1F
100
AcDbEntity
  8
1
  6
CENTER
 62
     7
100
AcDbLine
 10
-1086.425655407
 20
87.749023438
 30
0.0
 11
-1086.425655407
 21
154.749023438
 31
0.0
  0
LINE
  5
344
330
1F
100
AcDbEntity
  8
1
  6
SOLID
 62
     7
100
AcDbLine
 10
-1188.425972955
 20
286.749053955
 30
0.0
 11
-1184.425972955
 21
286.749053955
 31
0.0
  0
LINE
  5
345
330
1F
100
AcDbEntity
  8
1
  6
SOLID
 62
     7
100
AcDbLine
 10
-1104.425963613
 20
154.749023438
 30
0.0
 11
-1104.425963613
 21
244.749023438
 31
0.0
  0
LINE
  5
346
330
1F
100
AcDbEntity
  8
1
  6
SOLID
 62
     7
100
AcDbLine
 10
-971.425963613
 20
257.749023438
 30
0.0
 11
-972.425963613
 21
258.749023437
 31
0.0
  0
LINE
  5
347
330
1F
100
AcDbEntity
  8
1
  6
SOLID
 62
     7
100
AcDbLine
 10
-971.425963613
 20
245.749023438
 30
0.0
 11
-972.425963613
 21
244.749023437
 31
0.0
  0
LINE
  5
348
330
1F
100
AcDbEntity
  8
1
  6
SOLID
 62
     7
100
AcDbLine
 10
-971.425963613
 20
74.749023438
 30
0.0
 11
-972.425963613
 21
73.749023438
 31
0.0
  0
LINE
  5
349
330
1F
100
AcDbEntity
  8
1
  6
SOLID
 62
     7
100
AcDbLine
 10
-971.425963613
 20
86.749023438
 30
0.0
 11
-972.425963613
 21
87.749023438
 31
0.0
  0
LINE
  5
34A
330
1F
100
AcDbEntity
  8
1
  6
SOLID
 62
     7
100
AcDbLine
 10
-1420.42611621
 20
294.749023438
 30
0.0
 11
-1420.42611621
 21
178.408555747
 31
0.0
  0
LINE
  5
34B
330
1F
100
AcDbEntity
  8
1
  6
SOLID
 62
     7
100
AcDbLine
 10
-1265.750096945
 20
55.389824875
 30
0.0
 11
-1188.425948355
 21
55.389824875
 31
0.0
  0
LINE
  5
34C
330
1F
100
AcDbEntity
  8
1
  6
SOLID
 62
     7
100
AcDbLine
 10
-1410.425991852
 20
775.506404937
 30
0.0
 11
-1410.425991852
 21
753.749045624
 31
0.0
  0
LINE
  5
34D
330
1F
100
AcDbEntity
  8
1
  6
SOLID
 62
     7
100
AcDbLine
 10
-1415.425991852
 20
775.506404937
 30
0.0
 11
-1415.425991852
 21
753.749045624
 31
0.0
  0
LINE
  5
34E
330
1F
100
AcDbEntity
  8
1
  6
SOLID
 62
     7
100
AcDbLine
 10
-1137.425948355
 20
139.749023438
 30
0.0
 11
-1110.425963613
 21
139.749023438
 31
0.0
  0
LINE
  5
34F
330
1F
100
AcDbEntity
  8
1
  6
SOLID
 62
     7
100
AcDbLine
 10
-1106.425963613
 20
258.749023438
 30
0.0
 11
-972.425963613
 21
258.749023438
 31
0.0
  0
LINE
  5
350
330
1F
100
AcDbEntity
  8
1
  6
CENTER
 62
     7
100
AcDbLine
 10
-1402.279418632
 20
764.749045624
 30
0.0
 11
-1419.412497301
 21
764.749045624
 31
0.0
  0
ARC
  5
351
330
1F
100
AcDbEntity
  8
1
  6
SOLID
 62
     7
100
AcDbCircle
 10
-1418.425991852
 20
775.506404937
 30
0.0
 40
3.0
100
AcDbArc
 50
0.0
 51
45.0
  0
LINE
  5
352
330
1F
100
AcDbEntity
  8
1
  6
SOLID
 62
     7
100
AcDbLine
 10
-1183.425991852
 20
169.749023438
 30
0.0
 11
-1165.825832647
 21
169.749023438
 31
0.0
  0
LINE
  5
353
330
1F
100
AcDbEntity
  8
1
  6
SOLID
 62
     7
100
AcDbLine
 10
-1106.425963613
 20
244.749023438
 30
0.0
 11
-972.425963613
 21
244.749023438
 31
0.0
  0
LINE
  5
354
330
1F
100
AcDbEntity
  8
1
  6
SOLID
 62
     7
100
AcDbLine
 10
-971.425963613
 20
245.749023437
 30
0.0
 11
-971.425963613
 21
257.749023437
 31
0.0
  0
LINE
  5
355
330
1F
100
AcDbEntity
  8
1
  6
SOLID
 62
     7
100
AcDbLine
 10
-1106.425963613
 20
73.749023438
 30
0.0
 11
-972.425963613
 21
73.749023438
 31
0.0
  0
LINE
  5
356
330
1F
100
AcDbEntity
  8
1
  6
SOLID
 62
     7
100
AcDbLine
 10
-1106.425963613
 20
87.749023438
 30
0.0
 11
-972.425963613
 21
87.749023438
 31
0.0
  0
LINE
  5
357
330
1F
100
AcDbEntity
  8
1
  6
SOLID
 62
     7
100
AcDbLine
 10
-971.425963613
 20
86.749023438
 30
0.0
 11
-971.425963613
 21
74.749023438
 31
0.0
  0
LINE
  5
358
330
1F
100
AcDbEntity
  8
1
  6
CENTER
 62
     7
100
AcDbLine
 10
-1114.378416246
 20
261.249021816
 30
0.0
 11
-1100.347209399
 21
261.249021816
 31
0.0
  0
LINE
  5
359
330
1F
100
AcDbEntity
  8
1
  6
CENTER
 62
     7
100
AcDbLine
 10
-1130.631809771
 20
251.749023438
 30
0.0
 11
-959.62479197
 21
251.749023438
 31
0.0
  0
LINE
  5
35A
330
1F
100
AcDbEntity
  8
1
  6
SOLID
 62
     7
100
AcDbLine
 10
-1106.425963613
 20
236.749000531
 30
0.0
 11
-1106.425963613
 21
278.749018038
 31
0.0
  0
LINE
  5
35B
330
1F
100
AcDbEntity
  8
1
  6
SOLID
 62
     7
100
AcDbLine
 10
-1342.425948355
 20
229.749023438
 30
0.0
 11
-1342.425948355
 21
257.749023438
 31
0.0
  0
LINE
  5
35C
330
1F
100
AcDbEntity
  8
1
  6
SOLID
 62
     7
100
AcDbLine
 10
-1457.825947973
 20
312.249101156
 30
0.0
 11
-1457.825947973
 21
183.238334151
 31
0.0
  0
LINE
  5
35D
330
1F
100
AcDbEntity
  8
1
  6
SOLID
 62
     7
100
AcDbLine
 10
-1338.425993356
 20
291.749023438
 30
0.0
 11
-1338.425993356
 21
271.749023438
 31
0.0
  0
LINE
  5
35E
330
1F
100
AcDbEntity
  8
1
  6
CENTER
 62
     7
100
AcDbLine
 10
-1420.425948355
 20
264.749023438
 30
0.0
 11
-1342.937213264
 21
264.749023438
 31
0.0
  0
LINE
  5
35F
330
1F
100
AcDbEntity
  8
1
  6
SOLID
 62
     7
100
AcDbLine
 10
-1110.425963613
 20
278.749018038
 30
0.0
 11
-1106.425963613
 21
278.749018038
 31
0.0
  0
LINE
  5
360
330
1F
100
AcDbEntity
  8
1
  6
SOLID
 62
     7
100
AcDbLine
 10
-1110.425963613
 20
236.749000531
 30
0.0
 11
-1106.425963613
 21
236.749000531
 31
0.0
  0
LINE
  5
361
330
1F
100
AcDbEntity
  8
1
  6
SOLID
 62
     7
100
AcDbLine
 10
-1390.625933647
 20
51.749023438
 30
0.0
 11
-1338.425993356
 21
51.749023438
 31
0.0
  0
LINE
  5
362
330
1F
100
AcDbEntity
  8
1
  6
SOLID
 62
     7
100
AcDbLine
 10
-1265.750096945
 20
37.749023438
 30
0.0
 11
-1160.425963613
 21
37.749023438
 31
0.0
  0
LINE
  5
363
330
1F
100
AcDbEntity
  8
1
  6
CENTER
 62
     7
100
AcDbLine
 10
-1130.631809771
 20
80.749023438
 30
0.0
 11
-959.62479197
 21
80.749023438
 31
0.0
  0
LINE
  5
364
330
1F
100
AcDbEntity
  8
1
  6
SOLID
 62
     7
100
AcDbLine
 10
-1110.425963613
 20
30.749028837
 30
0.0
 11
-1106.425963613
 21
30.749028837
 31
0.0
  0
LINE
  5
365
330
1F
100
AcDbEntity
  8
1
  6
SOLID
 62
     7
100
AcDbLine
 10
-1457.825947973
 20
166.43837008
 30
0.0
 11
-1457.825947973
 21
143.059676795
 31
0.0
  0
LINE
  5
366
330
1F
100
AcDbEntity
  8
1
  6
SOLID
 62
     7
100
AcDbLine
 10
-1106.425963613
 20
95.749046344
 30
0.0
 11
-1106.425963613
 21
30.749028837
 31
0.0
  0
LINE
  5
367
330
1F
100
AcDbEntity
  8
1
  6
SOLID
 62
     7
100
AcDbLine
 10
-1342.425948355
 20
79.749023438
 30
0.0
 11
-1342.425948355
 21
51.749023438
 31
0.0
  0
LINE
  5
368
330
1F
100
AcDbEntity
  8
1
  6
SOLID
 62
     7
100
AcDbLine
 10
-1265.750096945
 20
58.108222
 30
0.0
 11
-1188.425948355
 21
58.108222
 31
0.0
  0
LINE
  5
369
330
1F
100
AcDbEntity
  8
1
  6
CENTER
 62
     7
100
AcDbLine
 10
-1114.378416246
 20
48.249025059
 30
0.0
 11
-1100.347209399
 21
48.249025059
 31
0.0
  0
LINE
  5
36A
330
1F
100
AcDbEntity
  8
1
  6
SOLID
 62
     7
100
AcDbLine
 10
-1110.425963613
 20
95.749046344
 30
0.0
 11
-1106.425963613
 21
95.749046344
 31
0.0
  0
LINE
  5
36B
330
1F
100
AcDbEntity
  8
1
  6
SOLID
 62
     7
100
AcDbLine
 10
-1104.425963613
 20
154.749023438
 30
0.0
 11
-1104.425963613
 21
87.749023438
 31
0.0
  0
LINE
  5
36C
330
1F
100
AcDbEntity
  8
1
  6
SOLID
 62
     7
100
AcDbLine
 10
-1097.425655407
 20
276.749028734
 30
0.0
 11
-1097.425655407
 21
258.749023438
 31
0.0
  0
LINE
  5
36D
330
1F
100
AcDbEntity
  8
1
  6
CENTER
 62
     7
100
AcDbLine
 10
-1086.425655407
 20
289.470399928
 30
0.0
 11
-1086.425655407
 21
258.749023438
 31
0.0
  0
LINE
  5
36E
330
1F
100
AcDbEntity
  8
1
  6
CENTER
 62
     7
100
AcDbLine
 10
-1072.425655407
 20
289.470399928
 30
0.0
 11
-1072.425655407
 21
258.749023438
 31
0.0
  0
LINE
  5
36F
330
1F
100
AcDbEntity
  8
1
  6
CENTER
 62
     7
100
AcDbLine
 10
-1058.425655407
 20
289.470399928
 30
0.0
 11
-1058.425655407
 21
258.749023438
 31
0.0
  0
LINE
  5
370
330
1F
100
AcDbEntity
  8
1
  6
CENTER
 62
     7
100
AcDbLine
 10
-1044.425655407
 20
289.470399928
 30
0.0
 11
-1044.425655407
 21
258.749023438
 31
0.0
  0
LINE
  5
371
330
1F
100
AcDbEntity
  8
1
  6
SOLID
 62
     7
100
AcDbLine
 10
-977.425655407
 20
276.749028734
 30
0.0
 11
-977.425655407
 21
258.749023438
 31
0.0
  0
LINE
  5
372
330
1F
100
AcDbEntity
  8
1
  6
CENTER
 62
     7
100
AcDbLine
 10
-1030.425655407
 20
289.470399928
 30
0.0
 11
-1030.425655407
 21
258.749023438
 31
0.0
  0
LINE
  5
373
330
1F
100
AcDbEntity
  8
1
  6
SOLID
 62
     7
100
AcDbLine
 10
-1338.425993356
 20
17.749023438
 30
0.0
 11
-1338.425993356
 21
37.749023438
 31
0.0
  0
LINE
  5
374
330
1F
100
AcDbEntity
  8
1
  6
SOLID
 62
     7
100
AcDbLine
 10
-1342.425948355
 20
37.749023438
 30
0.0
 11
-1342.425948355
 21
17.749111997
 31
0.0
  0
LINE
  5
375
330
1F
100
AcDbEntity
  8
1
  6
CENTER
 62
     7
100
AcDbLine
 10
-1016.425655407
 20
289.470399928
 30
0.0
 11
-1016.425655407
 21
258.749023438
 31
0.0
  0
LINE
  5
376
330
1F
100
AcDbEntity
  8
1
  6
CENTER
 62
     7
100
AcDbLine
 10
-1002.425655407
 20
289.470399928
 30
0.0
 11
-1002.425655407
 21
258.749023438
 31
0.0
  0
LINE
  5
377
330
1F
100
AcDbEntity
  8
1
  6
CENTER
 62
     7
100
AcDbLine
 10
-988.425655407
 20
289.470399928
 30
0.0
 11
-988.425655407
 21
258.749023438
 31
0.0
  0
LINE
  5
378
330
1F
100
AcDbEntity
  8
1
  6
SOLID
 62
     7
100
AcDbLine
 10
-1097.425655407
 20
154.749023438
 30
0.0
 11
-1097.425655407
 21
87.749023438
 31
0.0
  0
LINE
  5
379
330
1F
100
AcDbEntity
  8
1
  6
CENTER
 62
     7
100
AcDbLine
 10
-1086.425655407
 20
20.027646947
 30
0.0
 11
-1086.425655407
 21
73.749023438
 31
0.0
  0
LINE
  5
37A
330
1F
100
AcDbEntity
  8
1
  6
CENTER
 62
     7
100
AcDbLine
 10
-1072.425655407
 20
20.027646947
 30
0.0
 11
-1072.425655407
 21
73.749023438
 31
0.0
  0
LINE
  5
37B
330
1F
100
AcDbEntity
  8
1
  6
CENTER
 62
     7
100
AcDbLine
 10
-1058.425655407
 20
20.027646947
 30
0.0
 11
-1058.425655407
 21
73.749023438
 31
0.0
  0
LINE
  5
37C
330
1F
100
AcDbEntity
  8
1
  6
CENTER
 62
     7
100
AcDbLine
 10
-1044.425655407
 20
20.027646947
 30
0.0
 11
-1044.425655407
 21
73.749023438
 31
0.0
  0
LINE
  5
37D
330
1F
100
AcDbEntity
  8
1
  6
CENTER
 62
     7
100
AcDbLine
 10
-1030.425655407
 20
20.027646947
 30
0.0
 11
-1030.425655407
 21
73.749023438
 31
0.0
  0
LINE
  5
37E
330
1F
100
AcDbEntity
  8
1
  6
CENTER
 62
     7
100
AcDbLine
 10
-1016.425655407
 20
20.027646947
 30
0.0
 11
-1016.425655407
 21
73.749023438
 31
0.0
  0
LINE
  5
37F
330
1F
100
AcDbEntity
  8
1
  6
CENTER
 62
     7
100
AcDbLine
 10
-1002.425655407
 20
20.027646947
 30
0.0
 11
-1002.425655407
 21
73.749023438
 31
0.0
  0
LINE
  5
380
330
1F
100
AcDbEntity
  8
1
  6
CENTER
 62
     7
100
AcDbLine
 10
-988.425655407
 20
20.027646947
 30
0.0
 11
-988.425655407
 21
73.749023438
 31
0.0
  0
LINE
  5
381
330
1F
100
AcDbEntity
  8
1
  6
SOLID
 62
     7
100
AcDbLine
 10
-977.425655407
 20
244.749023438
 30
0.0
 11
-977.425655407
 21
87.749023438
 31
0.0
  0
LINE
  5
382
330
1F
100
AcDbEntity
  8
1
  6
CENTER
 62
     7
100
AcDbLine
 10
-1420.425948355
 20
44.749023438
 30
0.0
 11
-1342.937213264
 21
44.749023438
 31
0.0
  0
LINE
  5
383
330
1F
100
AcDbEntity
  8
1
  6
SOLID
 62
     7
100
AcDbLine
 10
-1188.425948355
 20
17.749023438
 30
0.0
 11
-1188.425948355
 21
37.749023438
 31
0.0
  0
LINE
  5
384
330
1F
100
AcDbEntity
  8
1
  6
SOLID
 62
     7
100
AcDbLine
 10
-1265.750096945
 20
69.389824875
 30
0.0
 11
-1188.425948355
 21
69.389824875
 31
0.0
  0
LINE
  5
385
330
1F
100
AcDbEntity
  8
1
  6
SOLID
 62
     7
100
AcDbLine
 10
-1184.425948355
 20
146.985070333
 30
0.0
 11
-1184.425948355
 21
154.51301219
 31
0.0
  0
ARC
  5
386
330
1F
100
AcDbEntity
  8
1
  6
SOLID
 62
     7
100
AcDbCircle
 10
-1418.425991852
 20
775.506404937
 30
0.0
 40
8.0
100
AcDbArc
 50
0.0
 51
45.0
  0
LINE
  5
387
330
1F
100
AcDbEntity
  8
1
  6
SOLID
 62
     7
100
AcDbLine
 10
-1183.425991852
 20
139.749023438
 30
0.0
 11
-1165.825832647
 21
139.749023438
 31
0.0
  0
LINE
  5
388
330
1F
100
AcDbEntity
  8
1
  6
SOLID
 62
     7
100
AcDbLine
 10
-1188.425948355
 20
51.749023438
 30
0.0
 11
-1160.425963613
 21
51.749023438
 31
0.0
  0
LINE
  5
389
330
1F
100
AcDbEntity
  8
1
  6
SOLID
 62
     7
100
AcDbLine
 10
-1184.425948355
 20
17.749048572
 30
0.0
 11
-1184.425948355
 21
37.749023438
 31
0.0
  0
ARC
  5
38A
330
1F
100
AcDbEntity
  8
1
  6
SOLID
 62
     7
100
AcDbCircle
 10
-1423.668632539
 20
780.749045624
 30
0.0
 40
8.0
100
AcDbArc
 50
45.0
 51
90.0
  0
ARC
  5
38B
330
1F
100
AcDbEntity
  8
1
  6
SOLID
 62
     7
100
AcDbCircle
 10
-1423.668632539
 20
780.749045624
 30
0.0
 40
3.0
100
AcDbArc
 50
45.0
 51
90.0
  0
LINE
  5
38C
330
1F
100
AcDbEntity
  8
1
  6
SOLID
 62
     7
100
AcDbLine
 10
-1142.425948355
 20
124.749023438
 30
0.0
 11
-1142.425948355
 21
184.749023438
 31
0.0
  0
LINE
  5
38D
330
1F
100
AcDbEntity
  8
1
  6
CENTER
 62
     7
100
AcDbLine
 10
-1182.988699729
 20
44.749023438
 30
0.0
 11
-1117.329604125
 21
44.749023438
 31
0.0
  0
LINE
  5
38E
330
1F
100
AcDbEntity
  8
1
  6
SOLID
 62
     7
100
AcDbLine
 10
-1129.425963613
 20
37.749023438
 30
0.0
 11
-1125.425963613
 21
37.749023438
 31
0.0
  0
LINE
  5
38F
330
1F
100
AcDbEntity
  8
1
  6
SOLID
 62
     7
100
AcDbLine
 10
-1403.42611621
 20
294.749023438
 30
0.0
 11
-1358.635416287
 21
271.749023438
 31
0.0
  0
LINE
  5
390
330
1F
100
AcDbEntity
  8
1
  6
SOLID
 62
     7
100
AcDbLine
 10
-1129.425963613
 20
51.749023438
 30
0.0
 11
-1125.425963613
 21
51.749023438
 31
0.0
  0
LINE
  5
391
330
1F
100
AcDbEntity
  8
1
  6
SOLID
 62
     7
100
AcDbLine
 10
-1129.425963613
 20
53.249023438
 30
0.0
 11
-1129.425963613
 21
36.249023438
 31
0.0
  0
CIRCLE
  5
392
330
1F
100
AcDbEntity
  8
1
  6
SOLID
 62
     7
100
AcDbCircle
 10
-599.688534898
 20
604.749101156
 30
0.0
 40
10.0
  0
ARC
  5
393
330
1F
100
AcDbEntity
  8
1
  6
SOLID
 62
     7
100
AcDbCircle
 10
-1546.097258375
 20
197.438568893
 30
0.0
 40
2.249123365
100
AcDbArc
 50
145.615740999
 51
214.384259001
  0
ARC
  5
394
330
1F
100
AcDbEntity
  8
1
  6
SOLID
 62
     7
100
AcDbCircle
 10
-1539.939376714
 20
201.249080684
 30
0.0
 40
8.407005026
100
AcDbArc
 50
162.412040055
 51
197.587959945
  0
LINE
  5
395
330
1F
100
AcDbEntity
  8
1
  6
CENTER
 62
     7
100
AcDbLine
 10
-1510.307328419
 20
201.249080684
 30
0.0
 11
-1553.34638174
 21
201.249080684
 31
0.0
  0
LINE
  5
396
330
1F
100
AcDbEntity
  8
1
  6
SOLID
 62
     7
100
AcDbLine
 10
-1547.95338945
 20
203.789421877
 30
0.0
 11
-1545.04638162
 21
203.789421877
 31
0.0
  0
ARC
  5
397
330
1F
100
AcDbEntity
  8
1
  6
SOLID
 62
     7
100
AcDbCircle
 10
-1546.097258375
 20
205.059592474
 30
0.0
 40
2.249123365
100
AcDbArc
 50
145.615740999
 51
214.384259001
  0
LINE
  5
398
330
1F
100
AcDbEntity
  8
1
  6
SOLID
 62
     7
100
AcDbLine
 10
-1544.826382022
 20
209.347094413
 30
0.0
 11
-1544.826191441
 21
154.749023438
 31
0.0
  0
LINE
  5
399
330
1F
100
AcDbEntity
  8
1
  6
SOLID
 62
     7
100
AcDbLine
 10
-1516.826285592
 20
192.249023438
 30
0.0
 11
-1438.426284066
 21
192.249023438
 31
0.0
  0
LINE
  5
39A
330
1F
100
AcDbEntity
  8
1
  6
SOLID
 62
     7
100
AcDbLine
 10
-1487.826237525
 20
191.249080684
 30
0.0
 11
-1486.826237525
 21
190.249080684
 31
0.0
  0
LINE
  5
39B
330
1F
100
AcDbEntity
  8
1
  6
SOLID
 62
     7
100
AcDbLine
 10
-1516.826285592
 20
312.249101156
 30
0.0
 11
-1516.826285592
 21
154.749023438
 31
0.0
  0
LINE
  5
39C
330
1F
100
AcDbEntity
  8
1
  6
SOLID
 62
     7
100
AcDbLine
 10
-1487.826237525
 20
191.249080684
 30
0.0
 11
-1516.826285592
 21
191.249080684
 31
0.0
  0
LINE
  5
39D
330
1F
100
AcDbEntity
  8
1
  6
SOLID
 62
     7
100
AcDbLine
 10
-1516.826285592
 20
209.347156895
 30
0.0
 11
-1516.826285592
 21
191.249080684
 31
0.0
  0
LINE
  5
39E
330
1F
100
AcDbEntity
  8
1
  6
SOLID
 62
     7
100
AcDbLine
 10
-1486.826237525
 20
154.749023438
 30
0.0
 11
-1486.826237525
 21
190.249080684
 31
0.0
  0
LINE
  5
39F
330
1F
100
AcDbEntity
  8
1
  6
SOLID
 62
     7
100
AcDbLine
 10
-1486.42611621
 20
132.249023438
 30
0.0
 11
-1486.42611621
 21
177.249023438
 31
0.0
  0
LINE
  5
3A0
330
1F
100
AcDbEntity
  8
1
  6
SOLID
 62
     7
100
AcDbLine
 10
-1486.42611621
 20
177.249023438
 30
0.0
 11
-1468.269126685
 21
177.249023438
 31
0.0
  0
LINE
  5
3A1
330
1F
100
AcDbEntity
  8
1
  6
SOLID
 62
     7
100
AcDbLine
 10
-1455.426284066
 20
192.249023438
 30
0.0
 11
-1455.426284066
 21
183.920857609
 31
0.0
  0
LINE
  5
3A2
330
1F
100
AcDbEntity
  8
1
  6
SOLID
 62
     7
100
AcDbLine
 10
-1438.426284066
 20
312.249101156
 30
0.0
 11
-1438.426284066
 21
154.749023438
 31
0.0
  0
LINE
  5
3A3
330
1F
100
AcDbEntity
  8
1
  6
SOLID
 62
     7
100
AcDbLine
 10
-1455.426284066
 20
117.249023438
 30
0.0
 11
-1455.426284066
 21
125.577189266
 31
0.0
  0
LINE
  5
3A4
330
1F
100
AcDbEntity
  8
1
  6
SOLID
 62
     7
100
AcDbLine
 10
-1486.42611621
 20
164.748978461
 30
0.0
 11
-1486.826237525
 21
164.748978461
 31
0.0
  0
ARC
  5
3A5
330
1F
100
AcDbEntity
  8
1
  6
SOLID
 62
     7
100
AcDbCircle
 10
-1518.326285592
 20
206.749080684
 30
0.0
 40
3.0
100
AcDbArc
 50
59.99999999999999
 51
90.0
  0
LINE
  5
3A6
330
1F
100
AcDbEntity
  8
1
  6
SOLID
 62
     7
100
AcDbLine
 10
-1518.326285592
 20
209.749080684
 30
0.0
 11
-1543.326372953
 21
209.749080684
 31
0.0
  0
LINE
  5
3A7
330
1F
100
AcDbEntity
  8
1
  6
SOLID
 62
     7
100
AcDbLine
 10
-1523.226285687
 20
224.820942402
 30
0.0
 11
-1523.226285687
 21
238.677348614
 31
0.0
  0
LINE
  5
3A8
330
1F
100
AcDbEntity
  8
1
  6
SOLID
 62
     7
100
AcDbLine
 10
-977.425655407
 20
73.749023438
 30
0.0
 11
-977.425655407
 21
32.749028734
 31
0.0
  0
LINE
  5
3A9
330
1F
100
AcDbEntity
  8
1
  6
SOLID
 62
     7
100
AcDbLine
 10
-1097.425655407
 20
73.749023438
 30
0.0
 11
-1097.425655407
 21
32.749028734
 31
0.0
  0
LINE
  5
3AA
330
1F
100
AcDbEntity
  8
1
  6
SOLID
 62
     7
100
AcDbLine
 10
-977.425655407
 20
276.749028734
 30
0.0
 11
-1097.425655407
 21
276.749028734
 31
0.0
  0
LINE
  5
3AB
330
1F
100
AcDbEntity
  8
1
  6
SOLID
 62
     7
100
AcDbLine
 10
-977.425655407
 20
32.749028734
 30
0.0
 11
-1097.425655407
 21
32.749028734
 31
0.0
  0
LINE
  5
3AC
330
1F
100
AcDbEntity
  8
1
  6
SOLID
 62
     7
100
AcDbLine
 10
-1104.425963613
 20
241.749023438
 30
0.0
 11
-1104.091645718
 21
241.749023438
 31
0.0
  0
LINE
  5
3AD
330
1F
100
AcDbEntity
  8
1
  6
SOLID
 62
     7
100
AcDbLine
 10
-1104.091645718
 20
241.749023438
 30
0.0
 11
-1104.091645718
 21
244.749023438
 31
0.0
  0
LINE
  5
3AE
330
1F
100
AcDbEntity
  8
1
  6
CENTER
 62
     7
100
AcDbLine
 10
-1448.425991852
 20
184.580534397
 30
0.0
 11
-1448.425991852
 21
126.953500659
 31
0.0
  0
ARC
  5
3AF
330
1F
100
AcDbEntity
  8
1
  6
SOLID
 62
     7
100
AcDbCircle
 10
-1507.940822334
 20
231.749145508
 30
0.0
 40
15.285463353
100
AcDbArc
 50
162.412040055
 51
197.587959945
  0
LINE
  5
3B0
330
1F
100
AcDbEntity
  8
1
  6
SOLID
 62
     7
100
AcDbLine
 10
-1522.511754265
 20
236.367947578
 30
0.0
 11
-1517.226285598
 21
236.367947578
 31
0.0
  0
ARC
  5
3B1
330
1F
100
AcDbEntity
  8
1
  6
SOLID
 62
     7
100
AcDbCircle
 10
-1519.136970566
 20
238.677348614
 30
0.0
 40
4.089315121
100
AcDbArc
 50
145.615740999
 51
214.384259001
  0
LINE
  5
3B2
330
1F
100
AcDbEntity
  8
1
  6
SOLID
 62
     7
100
AcDbLine
 10
-1152.499106265
 20
136.972655571
 30
0.0
 11
-1142.425948355
 21
133.662893726
 31
0.0
  0
DIMENSION
  5
3C2
330
1F
100
AcDbEntity
  8
1
  6
SOLID
 62
     7
100
AcDbDimension
  2
*D16
 10
-1548.345947266
 20
896.34387207
 30
0.0
 11
-1275.809204102
 21
901.84387207
 31
0.0
 70
    32
  1
  580   
 71
     5
 42
-1.0
  3
17
100
AcDbAlignedDimension
 13
-977.42565918
 23
726.749023438
 33
0.0
 14
-1548.345947266
 24
608.559570313
 34
0.0
100
AcDbRotatedDimension
  0
LINE
  5
3C3
330
1F
100
AcDbEntity
  8
1
  6
SOLID
 62
     7
100
AcDbLine
 10
-1517.226285598
 20
240.986749649
 30
0.0
 11
-1522.511754265
 21
240.986749649
 31
0.0
  0
LINE
  5
3C4
330
1F
100
AcDbEntity
  8
1
  6
SOLID
 62
     7
100
AcDbLine
 10
-1516.826285592
 20
239.064145565
 30
0.0
 11
-1517.226285598
 21
239.064145565
 31
0.0
  0
LINE
  5
3C5
330
1F
100
AcDbEntity
  8
1
  6
SOLID
 62
     7
100
AcDbLine
 10
-1342.42611621
 20
291.749023437
 30
0.0
 11
-1400.547766466
 21
293.270992413
 31
0.0
  0
LINE
  5
3C6
330
1F
100
AcDbEntity
  8
1
  6
SOLID
 62
     7
100
AcDbLine
 10
-1517.226285598
 20
222.511541367
 30
0.0
 11
-1517.226285598
 21
240.986749649
 31
0.0
  0
LINE
  5
3C7
330
1F
100
AcDbEntity
  8
1
  6
SOLID
 62
     7
100
AcDbLine
 10
-1522.511754265
 20
227.130343437
 30
0.0
 11
-1517.226285598
 21
227.130343437
 31
0.0
  0
LINE
  5
3C8
330
1F
100
AcDbEntity
  8
1
  6
SOLID
 62
     7
100
AcDbLine
 10
-1175.425948355
 20
141.749023438
 30
0.0
 11
-1175.425948355
 21
167.749023438
 31
0.0
  0
LINE
  5
3C9
330
1F
100
AcDbEntity
  8
1
  6
SOLID
 62
     7
100
AcDbLine
 10
-1210.425991852
 20
215.249015513
 30
0.0
 11
-1212.425991852
 21
217.249015513
 31
0.0
  0
LINE
  5
3CA
330
1F
100
AcDbEntity
  8
1
  6
SOLID
 62
     7
100
AcDbLine
 10
-1522.511754265
 20
222.511541367
 30
0.0
 11
-1517.226285598
 21
222.511541367
 31
0.0
  0
LINE
  5
3CB
330
1F
100
AcDbEntity
  8
1
  6
SOLID
 62
     7
100
AcDbLine
 10
-1517.226285598
 20
224.434145451
 30
0.0
 11
-1516.826285592
 21
224.434145451
 31
0.0
  0
LINE
  5
3CC
330
1F
100
AcDbEntity
  8
1
  6
SOLID
 62
     7
100
AcDbLine
 10
-1342.42611621
 20
271.749023438
 30
0.0
 11
-1342.42611621
 21
291.749023438
 31
0.0
  0
LINE
  5
3CD
330
1F
100
AcDbEntity
  8
1
  6
SOLID
 62
     7
100
AcDbLine
 10
-1205.425991852
 20
123.749041262
 30
0.0
 11
-1205.425991852
 21
99.749041262
 31
0.0
  0
LINE
  5
3CE
330
1F
100
AcDbEntity
  8
1
  6
SOLID
 62
     7
100
AcDbLine
 10
-1132.813594039
 20
34.249023438
 30
0.0
 11
-1131.425963613
 21
34.249023438
 31
0.0
  0
LINE
  5
3CF
330
1F
100
AcDbEntity
  8
1
  6
SOLID
 62
     7
100
AcDbLine
 10
-1403.42611621
 20
14.749023437
 30
0.0
 11
-1358.635416287
 21
37.749023437
 31
0.0
  0
LINE
  5
3D0
330
1F
100
AcDbEntity
  8
1
  6
SOLID
 62
     7
100
AcDbLine
 10
-1338.425993356
 20
286.748934878
 30
0.0
 11
-1342.425948355
 21
286.748934878
 31
0.0
  0
LINE
  5
3D1
330
1F
100
AcDbEntity
  8
1
  6
SOLID
 62
     7
100
AcDbLine
 10
-1097.425655407
 20
244.749023438
 30
0.0
 11
-1097.425655407
 21
154.749023438
 31
0.0
  0
ARC
  5
3D2
330
1F
100
AcDbEntity
  8
1
  6
SOLID
 62
     7
100
AcDbCircle
 10
-1112.425963613
 20
289.748998303
 30
0.0
 40
2.0
100
AcDbArc
 50
0.0
 51
90.0
  0
LINE
  5
3D3
330
1F
100
AcDbEntity
  8
1
  6
SOLID
 62
     7
100
AcDbLine
 10
-1132.813594039
 20
55.249023438
 30
0.0
 11
-1131.425963613
 21
55.249023438
 31
0.0
  0
ARC
  5
3D4
330
1F
100
AcDbEntity
  8
1
  6
SOLID
 62
     7
100
AcDbCircle
 10
-1131.425963613
 20
36.249023438
 30
0.0
 40
2.0
100
AcDbArc
 50
270.0
 51
0.0
  0
ARC
  5
3D5
330
1F
100
AcDbEntity
  8
1
  6
SOLID
 62
     7
100
AcDbCircle
 10
-1448.425991852
 20
154.749023438
 30
0.0
 40
15.0
100
AcDbArc
 50
90.0
 51
270.0
  0
ARC
  5
3D6
330
1F
100
AcDbEntity
  8
1
  6
SOLID
 62
     7
100
AcDbCircle
 10
-1448.425991852
 20
154.749023438
 30
0.0
 40
15.0
100
AcDbArc
 50
270.0
 51
90.0
  0
LINE
  5
3D7
330
1F
100
AcDbEntity
  8
1
  6
SOLID
 62
     7
100
AcDbLine
 10
-1221.425991852
 20
227.749023438
 30
0.0
 11
-1223.425991852
 21
229.749023438
 31
0.0
  0
ARC
  5
3D8
330
1F
100
AcDbEntity
  8
1
  6
SOLID
 62
     7
100
AcDbCircle
 10
-1105.425963613
 20
50.748995611
 30
0.0
 40
1.0
100
AcDbArc
 50
270.0
 51
0.0
  0
LINE
  5
3D9
330
1F
100
AcDbEntity
  8
1
  6
SOLID
 62
     7
100
AcDbLine
 10
-1104.425963613
 20
73.749023438
 30
0.0
 11
-1104.425963613
 21
50.748995611
 31
0.0
  0
LINE
  5
3DA
330
1F
100
AcDbEntity
  8
1
  6
SOLID
 62
     7
100
AcDbLine
 10
-1105.425963613
 20
49.748995611
 30
0.0
 11
-1110.425963613
 21
49.748995611
 31
0.0
  0
LINE
  5
3DB
330
1F
100
AcDbEntity
  8
1
  6
SOLID
 62
     7
100
AcDbLine
 10
-1110.425963613
 20
289.748998303
 30
0.0
 11
-1110.425963613
 21
154.749023438
 31
0.0
  0
ARC
  5
3DC
330
1F
100
AcDbEntity
  8
1
  6
SOLID
 62
     7
100
AcDbCircle
 10
-1105.425963613
 20
258.748995611
 30
0.0
 40
1.0
100
AcDbArc
 50
0.0
 51
90.0
  0
LINE
  5
3DD
330
1F
100
AcDbEntity
  8
1
  6
SOLID
 62
     7
100
AcDbLine
 10
-1104.425963613
 20
235.749023437
 30
0.0
 11
-1104.425963613
 21
244.749023438
 31
0.0
  0
LINE
  5
3DE
330
1F
100
AcDbEntity
  8
1
  6
SOLID
 62
     7
100
AcDbLine
 10
-1184.425948355
 20
291.748998303
 30
0.0
 11
-1112.425963613
 21
291.748998303
 31
0.0
  0
ARC
  5
3DF
330
1F
100
AcDbEntity
  8
1
  6
SOLID
 62
     7
100
AcDbCircle
 10
-1519.136970566
 20
224.820942402
 30
0.0
 40
4.089315121
100
AcDbArc
 50
145.615740999
 51
214.384259001
  0
LINE
  5
3E0
330
1F
100
AcDbEntity
  8
1
  6
SOLID
 62
     7
100
AcDbLine
 10
-1438.426284066
 20
312.249101156
 30
0.0
 11
-1516.826285592
 21
312.249101156
 31
0.0
  0
LINE
  5
3E1
330
1F
100
AcDbEntity
  8
1
  6
SOLID
 62
     7
100
AcDbLine
 10
-1184.425973701
 20
18.749020409
 30
0.0
 11
-1184.425972955
 21
22.749020409
 31
0.0
  0
LINE
  5
3E2
330
1F
100
AcDbEntity
  8
1
  6
SOLID
 62
     7
100
AcDbLine
 10
-1105.425963613
 20
259.748995611
 30
0.0
 11
-1106.425963613
 21
259.748995611
 31
0.0
  0
LINE
  5
3E3
330
1F
100
AcDbEntity
  8
1
  6
SOLID
 62
     7
100
AcDbLine
 10
-1184.425948355
 20
121.985070333
 30
0.0
 11
-1184.425948355
 21
126.51301219
 31
0.0
  0
ARC
  5
3E4
330
1F
100
AcDbEntity
  8
1
  6
SOLID
 62
     7
100
AcDbCircle
 10
-1131.425963613
 20
53.249023438
 30
0.0
 40
2.0
100
AcDbArc
 50
0.0
 51
90.0
  0
LINE
  5
3E5
330
1F
100
AcDbEntity
  8
1
  6
SOLID
 62
     7
100
AcDbLine
 10
-1338.425993356
 20
257.749023438
 30
0.0
 11
-1338.425993356
 21
229.749023438
 31
0.0
  0
ARC
  5
3E6
330
1F
100
AcDbEntity
  8
1
  6
SOLID
 62
     7
100
AcDbCircle
 10
-599.688534898
 20
604.749101156
 30
0.0
 40
13.0
100
AcDbArc
 50
194.477606223
 51
14.845775288
  0
LINE
  5
3E7
330
1F
100
AcDbEntity
  8
1
  6
SOLID
 62
     7
100
AcDbLine
 10
-1188.425972955
 20
22.74899292
 30
0.0
 11
-1184.425972955
 21
22.74899292
 31
0.0
  0
LINE
  5
3E8
330
1F
100
AcDbEntity
  8
1
  6
SOLID
 62
     7
100
AcDbLine
 10
-1188.425948355
 20
122.749041262
 30
0.0
 11
-1188.425948355
 21
125.749041262
 31
0.0
  0
LINE
  5
3E9
330
1F
100
AcDbEntity
  8
1
  6
SOLID
 62
     7
100
AcDbLine
 10
-1516.826339731
 20
281.064145565
 30
0.0
 11
-1517.226339737
 21
281.064145565
 31
0.0
  0
LINE
  5
3EA
330
1F
100
AcDbEntity
  8
1
  6
SOLID
 62
     7
100
AcDbLine
 10
-1338.425968756
 20
22.74899292
 30
0.0
 11
-1342.425948355
 21
22.74899292
 31
0.0
  0
LINE
  5
3EB
330
1F
100
AcDbEntity
  8
1
  6
SOLID
 62
     7
100
AcDbLine
 10
-1125.425963613
 20
51.749023438
 30
0.0
 11
-1125.425963613
 21
37.749023438
 31
0.0
  0
LINE
  5
3EC
330
1F
100
AcDbEntity
  8
1
  6
SOLID
 62
     7
100
AcDbLine
 10
-1410.425991852
 20
133.172825259
 30
0.0
 11
-1425.425991852
 21
130.047862923
 31
0.0
  0
LINE
  5
3ED
330
1F
100
AcDbEntity
  8
1
  6
SOLID
 62
     7
100
AcDbLine
 10
-1410.425991852
 20
176.325221616
 30
0.0
 11
-1425.425991852
 21
179.450183952
 31
0.0
  0
LINE
  5
3EE
330
1F
100
AcDbEntity
  8
1
  6
SOLID
 62
     7
100
AcDbLine
 10
-1129.425963613
 20
38.949023485
 30
0.0
 11
-1124.425963613
 21
38.949023485
 31
0.0
  0
LINE
  5
3EF
330
1F
100
AcDbEntity
  8
1
  6
CENTER
 62
     7
100
AcDbLine
 10
-1182.988699729
 20
264.749023438
 30
0.0
 11
-1117.329604125
 21
264.749023438
 31
0.0
  0
LINE
  5
3F0
330
1F
100
AcDbEntity
  8
1
  6
SOLID
 62
     7
100
AcDbLine
 10
-1160.425963613
 20
170.873982594
 30
0.0
 11
-1160.425963613
 21
289.748998303
 31
0.0
  0
ARC
  5
3F1
330
1F
100
AcDbEntity
  8
1
  6
SOLID
 62
     7
100
AcDbCircle
 10
-1158.425963613
 20
289.748998303
 30
0.0
 40
2.0
100
AcDbArc
 50
90.0
 51
180.0
  0
LINE
  5
3F2
330
1F
100
AcDbEntity
  8
1
  6
SOLID
 62
     7
100
AcDbLine
 10
-1158.425963613
 20
291.748998303
 30
0.0
 11
-1147.425963613
 21
291.748998303
 31
0.0
  0
ARC
  5
3F3
330
1F
100
AcDbEntity
  8
1
  6
SOLID
 62
     7
100
AcDbCircle
 10
-1147.425963613
 20
289.748998303
 30
0.0
 40
2.0
100
AcDbArc
 50
0.0
 51
90.0
  0
LINE
  5
3F4
330
1F
100
AcDbEntity
  8
1
  6
SOLID
 62
     7
100
AcDbLine
 10
-1145.425963613
 20
174.849430883
 30
0.0
 11
-1145.425963613
 21
289.748998303
 31
0.0
  0
LINE
  5
3F5
330
1F
100
AcDbEntity
  8
1
  6
SOLID
 62
     7
100
AcDbLine
 10
-1265.750096945
 20
271.749023438
 30
0.0
 11
-1160.425963613
 21
271.749023438
 31
0.0
  0
LINE
  5
3F6
330
1F
100
AcDbEntity
  8
1
  6
SOLID
 62
     7
100
AcDbLine
 10
-1265.750096945
 20
257.749023438
 30
0.0
 11
-1160.425963613
 21
257.749023438
 31
0.0
  0
LINE
  5
3F7
330
1F
100
AcDbEntity
  8
1
  6
SOLID
 62
     7
100
AcDbLine
 10
-1184.425948355
 20
291.748998303
 30
0.0
 11
-1184.425948355
 21
271.749023438
 31
0.0
  0
LINE
  5
3F8
330
1F
100
AcDbEntity
  8
1
  6
SOLID
 62
     7
100
AcDbLine
 10
-1265.750096945
 20
72.108222
 30
0.0
 11
-1188.425948355
 21
72.108222
 31
0.0
  0
LINE
  5
3F9
330
1F
100
AcDbEntity
  8
1
  6
SOLID
 62
     7
100
AcDbLine
 10
-1390.625933647
 20
257.749023438
 30
0.0
 11
-1338.425993356
 21
257.749023438
 31
0.0
  0
LINE
  5
3FA
330
1F
100
AcDbEntity
  8
1
  6
SOLID
 62
     7
100
AcDbLine
 10
-1129.425963613
 20
50.54902339
 30
0.0
 11
-1124.425963613
 21
50.54902339
 31
0.0
  0
LINE
  5
3FB
330
1F
100
AcDbEntity
  8
1
  6
SOLID
 62
     7
100
AcDbLine
 10
-1406.925991852
 20
79.749023438
 30
0.0
 11
-1408.925991852
 21
81.749023438
 31
0.0
  0
LINE
  5
3FC
330
1F
100
AcDbEntity
  8
1
  6
SOLID
 62
     7
100
AcDbLine
 10
-1124.425963613
 20
50.749023438
 30
0.0
 11
-1124.425963613
 21
38.749023438
 31
0.0
  0
LINE
  5
3FD
330
1F
100
AcDbEntity
  8
1
  6
SOLID
 62
     7
100
AcDbLine
 10
-1125.425963613
 20
37.749023438
 30
0.0
 11
-1124.425963613
 21
38.749023438
 31
0.0
  0
LINE
  5
3FE
330
1F
100
AcDbEntity
  8
1
  6
SOLID
 62
     7
100
AcDbLine
 10
-1410.425991852
 20
154.749023438
 30
0.0
 11
-1410.425991852
 21
90.749031362
 31
0.0
  0
LINE
  5
3FF
330
1F
100
AcDbEntity
  8
1
  6
SOLID
 62
     7
100
AcDbLine
 10
-1125.425963613
 20
51.749023438
 30
0.0
 11
-1124.425963613
 21
50.749023437
 31
0.0
  0
LINE
  5
400
330
1F
100
AcDbEntity
  8
1
  6
SOLID
 62
     7
100
AcDbLine
 10
-1408.925991852
 20
90.749031362
 30
0.0
 11
-1408.925991852
 21
81.749023438
 31
0.0
  0
CIRCLE
  5
401
330
1F
100
AcDbEntity
  8
1
  6
SOLID
 62
     7
100
AcDbCircle
 10
-1164.425949097
 20
154.749023438
 30
0.0
 40
6.5
  0
LINE
  5
402
330
1F
100
AcDbEntity
  8
1
  6
SOLID
 62
     7
100
AcDbLine
 10
-1157.925949097
 20
150.996246576
 30
0.0
 11
-1157.925949097
 21
158.501800299
 31
0.0
  0
LINE
  5
403
330
1F
100
AcDbEntity
  8
1
  6
SOLID
 62
     7
100
AcDbLine
 10
-1129.425963613
 20
271.749023438
 30
0.0
 11
-1125.425963613
 21
271.749023438
 31
0.0
  0
LINE
  5
404
330
1F
100
AcDbEntity
  8
1
  6
SOLID
 62
     7
100
AcDbLine
 10
-1129.425963613
 20
257.749023438
 30
0.0
 11
-1125.425963613
 21
257.749023438
 31
0.0
  0
LINE
  5
405
330
1F
100
AcDbEntity
  8
1
  6
SOLID
 62
     7
100
AcDbLine
 10
-1129.425963613
 20
256.249023438
 30
0.0
 11
-1129.425963613
 21
273.249023438
 31
0.0
  0
LINE
  5
406
330
1F
100
AcDbEntity
  8
1
  6
SOLID
 62
     7
100
AcDbLine
 10
-1132.813594039
 20
275.249023438
 30
0.0
 11
-1131.425963613
 21
275.249023438
 31
0.0
  0
LINE
  5
407
330
1F
100
AcDbEntity
  8
1
  6
SOLID
 62
     7
100
AcDbLine
 10
-1132.813594039
 20
254.249023438
 30
0.0
 11
-1131.425963613
 21
254.249023438
 31
0.0
  0
ARC
  5
408
330
1F
100
AcDbEntity
  8
1
  6
SOLID
 62
     7
100
AcDbCircle
 10
-1131.425963613
 20
273.249023438
 30
0.0
 40
2.0
100
AcDbArc
 50
0.0
 51
90.0
  0
LINE
  5
409
330
1F
100
AcDbEntity
  8
1
  6
SOLID
 62
     7
100
AcDbLine
 10
-1164.425949097
 20
147.243469715
 30
0.0
 11
-1157.925948933
 21
150.996246627
 31
0.0
  0
ARC
  5
40A
330
1F
100
AcDbEntity
  8
1
  6
SOLID
 62
     7
100
AcDbCircle
 10
-1131.425963613
 20
256.249023438
 30
0.0
 40
2.0
100
AcDbArc
 50
270.0
 51
0.0
  0
LINE
  5
40B
330
1F
100
AcDbEntity
  8
1
  6
SOLID
 62
     7
100
AcDbLine
 10
-1125.425963613
 20
257.749023438
 30
0.0
 11
-1125.425963613
 21
271.749023438
 31
0.0
  0
LINE
  5
40C
330
1F
100
AcDbEntity
  8
1
  6
SOLID
 62
     7
100
AcDbLine
 10
-1129.425963613
 20
270.54902339
 30
0.0
 11
-1124.425963613
 21
270.54902339
 31
0.0
  0
LINE
  5
40D
330
1F
100
AcDbEntity
  8
1
  6
SOLID
 62
     7
100
AcDbLine
 10
-1129.425963613
 20
258.949023485
 30
0.0
 11
-1124.425963613
 21
258.949023485
 31
0.0
  0
LINE
  5
40E
330
1F
100
AcDbEntity
  8
1
  6
SOLID
 62
     7
100
AcDbLine
 10
-1124.425963613
 20
258.749023438
 30
0.0
 11
-1124.425963613
 21
270.749023438
 31
0.0
  0
LINE
  5
40F
330
1F
100
AcDbEntity
  8
1
  6
SOLID
 62
     7
100
AcDbLine
 10
-1125.425963613
 20
271.749023438
 30
0.0
 11
-1124.425963613
 21
270.749023437
 31
0.0
  0
LINE
  5
410
330
1F
100
AcDbEntity
  8
1
  6
SOLID
 62
     7
100
AcDbLine
 10
-1125.425963613
 20
257.749023438
 30
0.0
 11
-1124.425963613
 21
258.749023438
 31
0.0
  0
LINE
  5
411
330
1F
100
AcDbEntity
  8
1
  6
SOLID
 62
     7
100
AcDbLine
 10
-1170.925949097
 20
150.996246576
 30
0.0
 11
-1164.425948933
 21
147.243469665
 31
0.0
  0
LINE
  5
412
330
1F
100
AcDbEntity
  8
1
  6
SOLID
 62
     7
100
AcDbLine
 10
-1170.925949097
 20
158.501800299
 30
0.0
 11
-1170.925949097
 21
150.996246576
 31
0.0
  0
LINE
  5
413
330
1F
100
AcDbEntity
  8
1
  6
SOLID
 62
     7
100
AcDbLine
 10
-1153.668589042
 20
291.748998303
 30
0.0
 11
-1175.425948355
 21
291.748998303
 31
0.0
  0
LINE
  5
414
330
1F
100
AcDbEntity
  8
1
  6
SOLID
 62
     7
100
AcDbLine
 10
-1164.425949097
 20
162.25457716
 30
0.0
 11
-1170.925949261
 21
158.501800248
 31
0.0
  0
LINE
  5
415
330
1F
100
AcDbEntity
  8
1
  6
CENTER
 62
     7
100
AcDbLine
 10
-1164.425948355
 20
142.569438531
 30
0.0
 11
-1164.425948355
 21
165.27923729
 31
0.0
  0
LINE
  5
416
330
1F
100
AcDbEntity
  8
1
  6
SOLID
 62
     7
100
AcDbLine
 10
-1157.925949097
 20
158.501800299
 30
0.0
 11
-1164.425949261
 21
162.25457721
 31
0.0
  0
LINE
  5
417
330
1F
100
AcDbEntity
  8
1
  6
SOLID
 62
     7
100
AcDbLine
 10
-1338.925991852
 20
79.749023438
 30
0.0
 11
-1406.925991852
 21
79.749023438
 31
0.0
  0
LINE
  5
418
330
1F
100
AcDbEntity
  8
1
  6
SOLID
 62
     7
100
AcDbLine
 10
-1425.425991852
 20
130.047862923
 30
0.0
 11
-1441.286183935
 21
125.61102174
 31
0.0
  0
LINE
  5
419
330
1F
100
AcDbEntity
  8
1
  6
SOLID
 62
     7
100
AcDbLine
 10
-1425.425991852
 20
179.450183952
 30
0.0
 11
-1441.286183935
 21
183.887025135
 31
0.0
  0
LINE
  5
41A
330
1F
100
AcDbEntity
  8
1
  6
CENTER
 62
     7
100
AcDbLine
 10
-1215.425991852
 20
145.756628601
 30
0.0
 11
-1215.425991852
 21
165.241086592
 31
0.0
  0
LINE
  5
41B
330
1F
100
AcDbEntity
  8
1
  6
SOLID
 62
     7
100
AcDbLine
 10
-663.688534898
 20
786.249045624
 30
0.0
 11
-674.688534898
 21
786.249045624
 31
0.0
  0
ARC
  5
41C
330
1F
100
AcDbEntity
  8
1
  6
SOLID
 62
     7
100
AcDbCircle
 10
-1448.425991852
 20
154.749023438
 30
0.0
 40
30.0
100
AcDbArc
 50
76.231848953
 51
283.768151047
  0
LINE
  5
41D
330
1F
100
AcDbEntity
  8
1
  6
SOLID
 62
     7
100
AcDbLine
 10
-1410.425991852
 20
176.325221616
 30
0.0
 11
-1410.425991852
 21
133.172825259
 31
0.0
  0
LINE
  5
41E
330
1F
100
AcDbEntity
  8
1
  6
SOLID
 62
     7
100
AcDbLine
 10
-1516.826339731
 20
266.434145451
 30
0.0
 11
-1516.826339731
 21
281.064145565
 31
0.0
  0
LINE
  5
41F
330
1F
100
AcDbEntity
  8
1
  6
SOLID
 62
     7
100
AcDbLine
 10
-1517.226339737
 20
266.434145451
 30
0.0
 11
-1516.826339731
 21
266.434145451
 31
0.0
  0
LINE
  5
420
330
1F
100
AcDbEntity
  8
1
  6
SOLID
 62
     7
100
AcDbLine
 10
-674.688534898
 20
784.749045624
 30
0.0
 11
-674.688534898
 21
786.249045624
 31
0.0
  0
LINE
  5
421
330
1F
100
AcDbEntity
  8
1
  6
SOLID
 62
     7
100
AcDbLine
 10
-535.688534898
 20
866.249045624
 30
0.0
 11
-599.688534898
 21
866.249045624
 31
0.0
  0
LINE
  5
422
330
1F
100
AcDbEntity
  8
1
  6
SOLID
 62
     7
100
AcDbLine
 10
-663.688534898
 20
866.249045624
 30
0.0
 11
-599.688534898
 21
866.249045624
 31
0.0
  0
LINE
  5
423
330
1F
100
AcDbEntity
  8
1
  6
SOLID
 62
     7
100
AcDbLine
 10
-663.688534898
 20
786.249045624
 30
0.0
 11
-663.688534898
 21
866.249045624
 31
0.0
  0
LINE
  5
424
330
1F
100
AcDbEntity
  8
1
  6
SOLID
 62
     7
100
AcDbLine
 10
-535.688534898
 20
786.249045624
 30
0.0
 11
-535.688534898
 21
866.249045624
 31
0.0
  0
LINE
  5
425
330
1F
100
AcDbEntity
  8
1
  6
CENTER
 62
     7
100
AcDbLine
 10
-599.688534898
 20
784.749045624
 30
0.0
 11
-599.688534898
 21
866.249045624
 31
0.0
  0
LINE
  5
426
330
1F
100
AcDbEntity
  8
1
  6
SOLID
 62
     7
100
AcDbLine
 10
-524.688534898
 20
784.749045624
 30
0.0
 11
-524.688534898
 21
786.249045624
 31
0.0
  0
LINE
  5
427
330
1F
100
AcDbEntity
  8
1
  6
SOLID
 62
     7
100
AcDbLine
 10
-535.688534898
 20
786.249045624
 30
0.0
 11
-524.688534898
 21
786.249045624
 31
0.0
  0
LINE
  5
428
330
1F
100
AcDbEntity
  8
1
  6
SOLID
 62
     7
100
AcDbLine
 10
-672.688534898
 20
784.749045624
 30
0.0
 11
-672.688534898
 21
786.249045624
 31
0.0
  0
LINE
  5
429
330
1F
100
AcDbEntity
  8
1
  6
SOLID
 62
     7
100
AcDbLine
 10
-526.688534898
 20
784.749045624
 30
0.0
 11
-526.688534898
 21
786.249045624
 31
0.0
  0
LINE
  5
42A
330
1F
100
AcDbEntity
  8
1
  6
SOLID
 62
     7
100
AcDbLine
 10
-1221.425991852
 20
90.749031362
 30
0.0
 11
-1410.425991852
 21
90.749031362
 31
0.0
  0
LINE
  5
42B
330
1F
100
AcDbEntity
  8
1
  6
SOLID
 62
     7
100
AcDbLine
 10
-1210.425991852
 20
94.249031362
 30
0.0
 11
-1212.425991852
 21
92.249031362
 31
0.0
  0
LINE
  5
42C
330
1F
100
AcDbEntity
  8
1
  6
SOLID
 62
     7
100
AcDbLine
 10
-1210.425991852
 20
154.749023438
 30
0.0
 11
-1210.425991852
 21
79.749023438
 31
0.0
  0
LINE
  5
42D
330
1F
100
AcDbEntity
  8
1
  6
SOLID
 62
     7
100
AcDbLine
 10
-1221.425991852
 20
92.249031362
 30
0.0
 11
-1212.425991852
 21
92.249031362
 31
0.0
  0
LINE
  5
42E
330
1F
100
AcDbEntity
  8
1
  6
SOLID
 62
     7
100
AcDbLine
 10
-1221.425991852
 20
81.749023438
 30
0.0
 11
-1223.425991852
 21
79.749023437
 31
0.0
  0
LINE
  5
42F
330
1F
100
AcDbEntity
  8
1
  6
SOLID
 62
     7
100
AcDbLine
 10
-1221.425991852
 20
92.249031362
 30
0.0
 11
-1221.425991852
 21
81.749023438
 31
0.0
  0
LINE
  5
430
330
1F
100
AcDbEntity
  8
1
  6
SOLID
 62
     7
100
AcDbLine
 10
-1338.925991852
 20
79.749023438
 30
0.0
 11
-1210.425991852
 21
79.749023438
 31
0.0
  0
LINE
  5
431
330
1F
100
AcDbEntity
  8
1
  6
SOLID
 62
     7
100
AcDbLine
 10
-1221.425991852
 20
217.249015513
 30
0.0
 11
-1212.425991852
 21
217.249015513
 31
0.0
  0
LINE
  5
432
330
1F
100
AcDbEntity
  8
1
  6
SOLID
 62
     7
100
AcDbLine
 10
-1205.425991852
 20
99.749041262
 30
0.0
 11
-1210.425991852
 21
99.749041262
 31
0.0
  0
LINE
  5
433
330
1F
100
AcDbEntity
  8
1
  6
SOLID
 62
     7
100
AcDbLine
 10
-1406.925991852
 20
229.749023438
 30
0.0
 11
-1408.925991852
 21
227.749023437
 31
0.0
  0
LINE
  5
434
330
1F
100
AcDbEntity
  8
1
  6
SOLID
 62
     7
100
AcDbLine
 10
-1410.425991852
 20
154.749023438
 30
0.0
 11
-1410.425991852
 21
218.749015513
 31
0.0
  0
LINE
  5
435
330
1F
100
AcDbEntity
  8
1
  6
SOLID
 62
     7
100
AcDbLine
 10
-1408.925991852
 20
218.749015513
 30
0.0
 11
-1408.925991852
 21
227.749023437
 31
0.0
  0
LINE
  5
436
330
1F
100
AcDbEntity
  8
1
  6
SOLID
 62
     7
100
AcDbLine
 10
-1221.425991852
 20
218.749015513
 30
0.0
 11
-1410.425991852
 21
218.749015513
 31
0.0
  0
LINE
  5
437
330
1F
100
AcDbEntity
  8
1
  6
SOLID
 62
     7
100
AcDbLine
 10
-1338.925991852
 20
229.749023438
 30
0.0
 11
-1406.925991852
 21
229.749023438
 31
0.0
  0
LINE
  5
438
330
1F
100
AcDbEntity
  8
1
  6
SOLID
 62
     7
100
AcDbLine
 10
-1338.925991852
 20
229.749023438
 30
0.0
 11
-1210.425991852
 21
229.749023438
 31
0.0
  0
LINE
  5
439
330
1F
100
AcDbEntity
  8
1
  6
SOLID
 62
     7
100
AcDbLine
 10
-1210.425991852
 20
154.749023438
 30
0.0
 11
-1210.425991852
 21
229.749023438
 31
0.0
  0
LINE
  5
43A
330
1F
100
AcDbEntity
  8
1
  6
CENTER
 62
     7
100
AcDbLine
 10
-1309.747664786
 20
224.749023438
 30
0.0
 11
-1324.965698538
 21
224.749023438
 31
0.0
  0
LINE
  5
43B
330
1F
100
AcDbEntity
  8
1
  6
CENTER
 62
     7
100
AcDbLine
 10
-1318.925991852
 20
212.087321778
 30
0.0
 11
-1318.925991852
 21
235.173824036
 31
0.0
  0
LINE
  5
43C
330
1F
100
AcDbEntity
  8
1
  6
CENTER
 62
     7
100
AcDbLine
 10
-1310.874926545
 20
84.749023438
 30
0.0
 11
-1326.092960297
 21
84.749023438
 31
0.0
  0
LINE
  5
43D
330
1F
100
AcDbEntity
  8
1
  6
CENTER
 62
     7
100
AcDbLine
 10
-1318.925991852
 20
94.00665248
 30
0.0
 11
-1318.925991852
 21
73.15230993
 31
0.0
  0
LINE
  5
43E
330
1F
100
AcDbEntity
  8
1
  6
SOLID
 62
     7
100
AcDbLine
 10
-1205.425991852
 20
123.749041262
 30
0.0
 11
-1210.425991852
 21
123.749041262
 31
0.0
  0
LINE
  5
4F3
330
1F
100
AcDbEntity
  8
1
  6
SOLID
 62
     7
100
AcDbLine
 10
-1202.425991852
 20
101.749041262
 30
0.0
 11
-1205.425991852
 21
101.749041262
 31
0.0
  0
LINE
  5
4F4
330
1F
100
AcDbEntity
  8
1
  6
SOLID
 62
     7
100
AcDbLine
 10
-1202.425991852
 20
121.749041262
 30
0.0
 11
-1205.425991852
 21
121.749041262
 31
0.0
  0
LINE
  5
4F5
330
1F
100
AcDbEntity
  8
1
  6
SOLID
 62
     7
100
AcDbLine
 10
-1202.425991852
 20
123.749041262
 30
0.0
 11
-1202.425991852
 21
99.749041262
 31
0.0
  0
LINE
  5
4F6
330
1F
100
AcDbEntity
  8
1
  6
SOLID
 62
     7
100
AcDbLine
 10
-1189.425991852
 20
123.749041262
 30
0.0
 11
-1189.425991852
 21
99.749041262
 31
0.0
  0
LINE
  5
4F7
330
1F
100
AcDbEntity
  8
1
  6
SOLID
 62
     7
100
AcDbLine
 10
-1189.425991852
 20
99.749041262
 30
0.0
 11
-1202.425991852
 21
99.749041262
 31
0.0
  0
LINE
  5
4F8
330
1F
100
AcDbEntity
  8
1
  6
SOLID
 62
     7
100
AcDbLine
 10
-1189.425991852
 20
123.749041262
 30
0.0
 11
-1202.425991852
 21
123.749041262
 31
0.0
  0
LINE
  5
4F9
330
1F
100
AcDbEntity
  8
1
  6
SOLID
 62
     7
100
AcDbLine
 10
-1186.425991852
 20
100.749041262
 30
0.0
 11
-1189.425991852
 21
100.749041262
 31
0.0
  0
LINE
  5
4FA
330
1F
100
AcDbEntity
  8
1
  6
SOLID
 62
     7
100
AcDbLine
 10
-1186.425991852
 20
122.749041262
 30
0.0
 11
-1189.425991852
 21
122.749041262
 31
0.0
  0
LINE
  5
4FB
330
1F
100
AcDbEntity
  8
1
  6
SOLID
 62
     7
100
AcDbLine
 10
-1183.425991852
 20
119.749041262
 30
0.0
 11
-1183.425991852
 21
103.749041262
 31
0.0
  0
ARC
  5
4FC
330
1F
100
AcDbEntity
  8
1
  6
SOLID
 62
     7
100
AcDbCircle
 10
-1186.425991852
 20
103.749041262
 30
0.0
 40
3.0
100
AcDbArc
 50
270.0
 51
0.0
  0
ARC
  5
567
330
1F
100
AcDbEntity
  8
1
  6
SOLID
 62
     7
100
AcDbCircle
 10
-599.688534898
 20
604.749101156
 30
0.0
 40
20.0
100
AcDbArc
 50
42.369942135
 51
165.086280637
  0
LINE
  5
568
330
1F
100
AcDbEntity
  8
1
  6
SOLID
 62
     7
100
AcDbLine
 10
-1210.425991852
 20
86.108222
 30
0.0
 11
-1188.425948355
 21
86.108222
 31
0.0
  0
LINE
  5
569
330
1F
100
AcDbEntity
  8
1
  6
SOLID
 62
     7
100
AcDbLine
 10
-1210.425991852
 20
83.389824875
 30
0.0
 11
-1188.425948355
 21
83.389824875
 31
0.0
  0
LINE
  5
56A
330
1F
100
AcDbEntity
  8
1
  6
SOLID
 62
     7
100
AcDbLine
 10
-1210.425991852
 20
97.389824875
 30
0.0
 11
-1188.425948355
 21
97.389824875
 31
0.0
  0
LINE
  5
56B
330
1F
100
AcDbEntity
  8
1
  6
SOLID
 62
     7
100
AcDbLine
 10
-584.74426907
 20
614.385188144
 30
0.0
 11
-586.263581457
 21
612.395137328
 31
0.0
  0
LINE
  5
56C
330
1F
100
AcDbEntity
  8
1
  6
SOLID
 62
     7
100
AcDbLine
 10
-617.742595059
 20
606.60361742
 30
0.0
 11
-614.405762618
 21
604.450197287
 31
0.0
  0
LINE
  5
56D
330
1F
100
AcDbEntity
  8
1
  6
SOLID
 62
     7
100
AcDbLine
 10
-1205.425991852
 20
797.749005613
 30
0.0
 11
-1205.425991852
 21
821.749005613
 31
0.0
  0
LINE
  5
56E
330
1F
100
AcDbEntity
  8
1
  6
SOLID
 62
     7
100
AcDbLine
 10
-1205.425991852
 20
821.749005613
 30
0.0
 11
-1210.425991852
 21
821.749005613
 31
0.0
  0
ARC
  5
56F
330
1F
100
AcDbEntity
  8
1
  6
SOLID
 62
     7
100
AcDbCircle
 10
-582.289392954
 20
609.361026957
 30
0.0
 40
5.0
100
AcDbArc
 50
142.639928744
 51
194.845775288
  0
LINE
  5
570
330
1F
100
AcDbEntity
  8
1
  6
SOLID
 62
     7
100
AcDbLine
 10
-1205.425991852
 20
797.749005613
 30
0.0
 11
-1210.425991852
 21
797.749005613
 31
0.0
  0
LINE
  5
571
330
1F
100
AcDbEntity
  8
1
  6
SOLID
 62
     7
100
AcDbLine
 10
-1265.750096945
 20
51.749023438
 30
0.0
 11
-1160.425963613
 21
51.749023438
 31
0.0
  0
LINE
  5
572
330
1F
100
AcDbEntity
  8
1
  6
SOLID
 62
     7
100
AcDbLine
 10
-1390.625933647
 20
51.749023438
 30
0.0
 11
-1338.425993356
 21
51.749023438
 31
0.0
  0
LINE
  5
573
330
1F
100
AcDbEntity
  8
1
  6
SOLID
 62
     7
100
AcDbLine
 10
-1338.425993356
 20
51.749023438
 30
0.0
 11
-1338.425993356
 21
79.749023438
 31
0.0
  0
LINE
  5
574
330
1F
100
AcDbEntity
  8
1
  6
SOLID
 62
     7
100
AcDbLine
 10
-1338.425993356
 20
17.749023438
 30
0.0
 11
-1338.425993356
 21
37.749023438
 31
0.0
  0
LINE
  5
575
330
1F
100
AcDbEntity
  8
1
  6
SOLID
 62
     7
100
AcDbLine
 10
-1202.425991852
 20
819.749005613
 30
0.0
 11
-1205.425991852
 21
819.749005613
 31
0.0
  0
LINE
  5
576
330
1F
100
AcDbEntity
  8
1
  6
SOLID
 62
     7
100
AcDbLine
 10
-1265.750096945
 20
17.749023438
 30
0.0
 11
-1188.425948355
 21
17.749023438
 31
0.0
  0
LINE
  5
577
330
1F
100
AcDbEntity
  8
1
  6
SOLID
 62
     7
100
AcDbLine
 10
-1265.750096945
 20
22.378902489
 30
0.0
 11
-1188.425948355
 21
22.378902489
 31
0.0
  0
LINE
  5
578
330
1F
100
AcDbEntity
  8
1
  6
SOLID
 62
     7
100
AcDbLine
 10
-1188.425948355
 20
147.749041262
 30
0.0
 11
-1188.425948355
 21
153.749041262
 31
0.0
  0
LINE
  5
579
330
1F
100
AcDbEntity
  8
1
  6
SOLID
 62
     7
100
AcDbLine
 10
-1188.425948355
 20
17.749023438
 30
0.0
 11
-1188.425948355
 21
37.749023438
 31
0.0
  0
ARC
  5
5C4
330
1F
100
AcDbEntity
  8
1
  6
SOLID
 62
     7
100
AcDbCircle
 10
-1186.425991852
 20
119.749041262
 30
0.0
 40
3.0
100
AcDbArc
 50
0.0
 51
90.0
  0
LINE
  5
5C5
330
1F
100
AcDbEntity
  8
1
  6
CENTER
 62
     7
100
AcDbLine
 10
-1181.20541466
 20
111.749041262
 30
0.0
 11
-1189.425991852
 21
111.749041262
 31
0.0
  0
LINE
  5
5C6
330
1F
100
AcDbEntity
  8
1
  6
SOLID
 62
     7
100
AcDbLine
 10
-1189.425991852
 20
111.749041262
 30
0.0
 11
-1202.425991852
 21
111.749041262
 31
0.0
  0
LINE
  5
5C7
330
1F
100
AcDbEntity
  8
1
  6
CENTER
 62
     7
100
AcDbLine
 10
-1202.425991852
 20
111.749041262
 30
0.0
 11
-1205.425991852
 21
111.749041262
 31
0.0
  0
LINE
  5
5C8
330
1F
100
AcDbEntity
  8
1
  6
SOLID
 62
     7
100
AcDbLine
 10
-1205.425991852
 20
111.749041262
 30
0.0
 11
-1210.425991852
 21
111.749041262
 31
0.0
  0
LINE
  5
5C9
330
1F
100
AcDbEntity
  8
1
  6
SOLID
 62
     7
100
AcDbLine
 10
-1205.425991852
 20
176.749041262
 30
0.0
 11
-1205.425991852
 21
152.749041262
 31
0.0
  0
LINE
  5
5CA
330
1F
100
AcDbEntity
  8
1
  6
SOLID
 62
     7
100
AcDbLine
 10
-1205.425991852
 20
152.749041262
 30
0.0
 11
-1210.425991852
 21
152.749041262
 31
0.0
  0
LINE
  5
5CB
330
1F
100
AcDbEntity
  8
1
  6
SOLID
 62
     7
100
AcDbLine
 10
-1205.425991852
 20
176.749041262
 30
0.0
 11
-1210.425991852
 21
176.749041262
 31
0.0
  0
LINE
  5
5CC
330
1F
100
AcDbEntity
  8
1
  6
SOLID
 62
     7
100
AcDbLine
 10
-1202.425991852
 20
154.749041262
 30
0.0
 11
-1205.425991852
 21
154.749041262
 31
0.0
  0
LINE
  5
5CD
330
1F
100
AcDbEntity
  8
1
  6
SOLID
 62
     7
100
AcDbLine
 10
-1202.425991852
 20
174.749041262
 30
0.0
 11
-1205.425991852
 21
174.749041262
 31
0.0
  0
LINE
  5
5CE
330
1F
100
AcDbEntity
  8
1
  6
SOLID
 62
     7
100
AcDbLine
 10
-1202.425991852
 20
176.749041262
 30
0.0
 11
-1202.425991852
 21
152.749041262
 31
0.0
  0
LINE
  5
5CF
330
1F
100
AcDbEntity
  8
1
  6
SOLID
 62
     7
100
AcDbLine
 10
-1189.425991852
 20
176.749041262
 30
0.0
 11
-1189.425991852
 21
152.749041262
 31
0.0
  0
LINE
  5
5D0
330
1F
100
AcDbEntity
  8
1
  6
SOLID
 62
     7
100
AcDbLine
 10
-1189.425991852
 20
152.749041262
 30
0.0
 11
-1202.425991852
 21
152.749041262
 31
0.0
  0
LINE
  5
5D1
330
1F
100
AcDbEntity
  8
1
  6
SOLID
 62
     7
100
AcDbLine
 10
-1189.425991852
 20
176.749041262
 30
0.0
 11
-1202.425991852
 21
176.749041262
 31
0.0
  0
LINE
  5
5D2
330
1F
100
AcDbEntity
  8
1
  6
SOLID
 62
     7
100
AcDbLine
 10
-1186.425991852
 20
153.749041262
 30
0.0
 11
-1189.425991852
 21
153.749041262
 31
0.0
  0
LINE
  5
5D3
330
1F
100
AcDbEntity
  8
1
  6
SOLID
 62
     7
100
AcDbLine
 10
-1186.425991852
 20
175.749041262
 30
0.0
 11
-1189.425991852
 21
175.749041262
 31
0.0
  0
LINE
  5
5D4
330
1F
100
AcDbEntity
  8
1
  6
SOLID
 62
     7
100
AcDbLine
 10
-1183.425991852
 20
172.749041262
 30
0.0
 11
-1183.425991852
 21
156.749041262
 31
0.0
  0
ARC
  5
5D5
330
1F
100
AcDbEntity
  8
1
  6
SOLID
 62
     7
100
AcDbCircle
 10
-1186.425991852
 20
156.749041262
 30
0.0
 40
3.0
100
AcDbArc
 50
270.0
 51
0.0
  0
ARC
  5
5D6
330
1F
100
AcDbEntity
  8
1
  6
SOLID
 62
     7
100
AcDbCircle
 10
-1186.425991852
 20
172.749041262
 30
0.0
 40
3.0
100
AcDbArc
 50
0.0
 51
90.0
  0
LINE
  5
5D7
330
1F
100
AcDbEntity
  8
1
  6
CENTER
 62
     7
100
AcDbLine
 10
-1181.20541466
 20
164.749041262
 30
0.0
 11
-1189.425991852
 21
164.749041262
 31
0.0
  0
LINE
  5
5D8
330
1F
100
AcDbEntity
  8
1
  6
SOLID
 62
     7
100
AcDbLine
 10
-1189.425991852
 20
164.749041262
 30
0.0
 11
-1202.425991852
 21
164.749041262
 31
0.0
  0
LINE
  5
5D9
330
1F
100
AcDbEntity
  8
1
  6
CENTER
 62
     7
100
AcDbLine
 10
-1202.425991852
 20
164.749041262
 30
0.0
 11
-1205.425991852
 21
164.749041262
 31
0.0
  0
LINE
  5
5DA
330
1F
100
AcDbEntity
  8
1
  6
SOLID
 62
     7
100
AcDbLine
 10
-1205.425991852
 20
164.749041262
 30
0.0
 11
-1210.425991852
 21
164.749041262
 31
0.0
  0
LINE
  5
5DB
330
1F
100
AcDbEntity
  8
1
  6
SOLID
 62
     7
100
AcDbLine
 10
-1205.425991852
 20
148.749041262
 30
0.0
 11
-1205.425991852
 21
124.749041262
 31
0.0
  0
LINE
  5
5DC
330
1F
100
AcDbEntity
  8
1
  6
SOLID
 62
     7
100
AcDbLine
 10
-1205.425991852
 20
124.749041262
 30
0.0
 11
-1210.425991852
 21
124.749041262
 31
0.0
  0
LINE
  5
5DD
330
1F
100
AcDbEntity
  8
1
  6
SOLID
 62
     7
100
AcDbLine
 10
-1205.425991852
 20
148.749041262
 30
0.0
 11
-1210.425991852
 21
148.749041262
 31
0.0
  0
LINE
  5
5DE
330
1F
100
AcDbEntity
  8
1
  6
SOLID
 62
     7
100
AcDbLine
 10
-1202.425991852
 20
126.749041262
 30
0.0
 11
-1205.425991852
 21
126.749041262
 31
0.0
  0
LINE
  5
5DF
330
1F
100
AcDbEntity
  8
1
  6
SOLID
 62
     7
100
AcDbLine
 10
-1202.425991852
 20
146.749041262
 30
0.0
 11
-1205.425991852
 21
146.749041262
 31
0.0
  0
LINE
  5
5E0
330
1F
100
AcDbEntity
  8
1
  6
SOLID
 62
     7
100
AcDbLine
 10
-1202.425991852
 20
148.749041262
 30
0.0
 11
-1202.425991852
 21
124.749041262
 31
0.0
  0
LINE
  5
5E1
330
1F
100
AcDbEntity
  8
1
  6
SOLID
 62
     7
100
AcDbLine
 10
-1189.425991852
 20
148.749041262
 30
0.0
 11
-1189.425991852
 21
124.749041262
 31
0.0
  0
LINE
  5
5E2
330
1F
100
AcDbEntity
  8
1
  6
SOLID
 62
     7
100
AcDbLine
 10
-1189.425991852
 20
124.749041262
 30
0.0
 11
-1202.425991852
 21
124.749041262
 31
0.0
  0
LINE
  5
5E3
330
1F
100
AcDbEntity
  8
1
  6
SOLID
 62
     7
100
AcDbLine
 10
-1189.425991852
 20
148.749041262
 30
0.0
 11
-1202.425991852
 21
148.749041262
 31
0.0
  0
LINE
  5
5E4
330
1F
100
AcDbEntity
  8
1
  6
SOLID
 62
     7
100
AcDbLine
 10
-1186.425991852
 20
125.749041262
 30
0.0
 11
-1189.425991852
 21
125.749041262
 31
0.0
  0
LINE
  5
5E5
330
1F
100
AcDbEntity
  8
1
  6
SOLID
 62
     7
100
AcDbLine
 10
-1186.425991852
 20
147.749041262
 30
0.0
 11
-1189.425991852
 21
147.749041262
 31
0.0
  0
LINE
  5
5E6
330
1F
100
AcDbEntity
  8
1
  6
SOLID
 62
     7
100
AcDbLine
 10
-1183.425991852
 20
144.749041262
 30
0.0
 11
-1183.425991852
 21
128.749041262
 31
0.0
  0
ARC
  5
5E7
330
1F
100
AcDbEntity
  8
1
  6
SOLID
 62
     7
100
AcDbCircle
 10
-1186.425991852
 20
128.749041262
 30
0.0
 40
3.0
100
AcDbArc
 50
270.0
 51
0.0
  0
ARC
  5
5E8
330
1F
100
AcDbEntity
  8
1
  6
SOLID
 62
     7
100
AcDbCircle
 10
-1186.425991852
 20
144.749041262
 30
0.0
 40
3.0
100
AcDbArc
 50
0.0
 51
90.0
  0
LINE
  5
5E9
330
1F
100
AcDbEntity
  8
1
  6
CENTER
 62
     7
100
AcDbLine
 10
-1181.20541466
 20
136.749041262
 30
0.0
 11
-1189.425991852
 21
136.749041262
 31
0.0
  0
LINE
  5
5EA
330
1F
100
AcDbEntity
  8
1
  6
SOLID
 62
     7
100
AcDbLine
 10
-1189.425991852
 20
136.749041262
 30
0.0
 11
-1202.425991852
 21
136.749041262
 31
0.0
  0
LINE
  5
5EB
330
1F
100
AcDbEntity
  8
1
  6
CENTER
 62
     7
100
AcDbLine
 10
-1202.425991852
 20
136.749041262
 30
0.0
 11
-1205.425991852
 21
136.749041262
 31
0.0
  0
LINE
  5
5EC
330
1F
100
AcDbEntity
  8
1
  6
SOLID
 62
     7
100
AcDbLine
 10
-1205.425991852
 20
136.749041262
 30
0.0
 11
-1210.425991852
 21
136.749041262
 31
0.0
  0
LINE
  5
5ED
330
1F
100
AcDbEntity
  8
1
  6
SOLID
 62
     7
100
AcDbLine
 10
-1204.425991852
 20
207.749041262
 30
0.0
 11
-1204.425991852
 21
174.749041262
 31
0.0
  0
LINE
  5
5EE
330
1F
100
AcDbEntity
  8
1
  6
SOLID
 62
     7
100
AcDbLine
 10
-1204.425991852
 20
207.749041262
 30
0.0
 11
-1210.425991852
 21
207.749041262
 31
0.0
  0
LINE
  5
5EF
330
1F
100
AcDbEntity
  8
1
  6
SOLID
 62
     7
100
AcDbLine
 10
-1201.425991852
 20
207.749041262
 30
0.0
 11
-1201.425991852
 21
176.749041262
 31
0.0
  0
LINE
  5
5F0
330
1F
100
AcDbEntity
  8
1
  6
SOLID
 62
     7
100
AcDbLine
 10
-1186.425991852
 20
207.749041262
 30
0.0
 11
-1201.425991852
 21
207.749041262
 31
0.0
  0
LINE
  5
5F1
330
1F
100
AcDbEntity
  8
1
  6
SOLID
 62
     7
100
AcDbLine
 10
-1186.425991852
 20
207.749041262
 30
0.0
 11
-1186.425991852
 21
175.749041262
 31
0.0
  0
LINE
  5
5F2
330
1F
100
AcDbEntity
  8
1
  6
SOLID
 62
     7
100
AcDbLine
 10
-1180.425991852
 20
203.249041262
 30
0.0
 11
-1180.425991852
 21
176.249041262
 31
0.0
  0
LINE
  5
5F3
330
1F
100
AcDbEntity
  8
1
  6
SOLID
 62
     7
100
AcDbLine
 10
-1183.425991852
 20
173.249041262
 30
0.0
 11
-1183.46795196
 21
173.249041262
 31
0.0
  0
LINE
  5
5F4
330
1F
100
AcDbEntity
  8
1
  6
SOLID
 62
     7
100
AcDbLine
 10
-1183.425991852
 20
206.249041262
 30
0.0
 11
-1186.425991852
 21
206.249041262
 31
0.0
  0
ARC
  5
5F5
330
1F
100
AcDbEntity
  8
1
  6
SOLID
 62
     7
100
AcDbCircle
 10
-1183.425991852
 20
203.249041262
 30
0.0
 40
3.0
100
AcDbArc
 50
0.0
 51
90.0
  0
ARC
  5
5F6
330
1F
100
AcDbEntity
  8
1
  6
SOLID
 62
     7
100
AcDbCircle
 10
-1183.425991852
 20
176.249041262
 30
0.0
 40
3.0
100
AcDbArc
 50
269.197644851
 51
0.0
  0
LINE
  5
5F7
330
1F
100
AcDbEntity
  8
1
  6
SOLID
 62
     7
100
AcDbLine
 10
-1201.425991852
 20
206.249041262
 30
0.0
 11
-1204.425991852
 21
206.249041262
 31
0.0
  0
LINE
  5
5F8
330
1F
100
AcDbEntity
  8
1
  6
CENTER
 62
     7
100
AcDbLine
 10
-1168.304339296
 20
189.749041262
 30
0.0
 11
-1186.425991852
 21
189.749041262
 31
0.0
  0
LINE
  5
5F9
330
1F
100
AcDbEntity
  8
1
  6
SOLID
 62
     7
100
AcDbLine
 10
-1186.425991852
 20
189.749041262
 30
0.0
 11
-1201.425991852
 21
189.749041262
 31
0.0
  0
LINE
  5
5FA
330
1F
100
AcDbEntity
  8
1
  6
SOLID
 62
     7
100
AcDbLine
 10
-1204.425991852
 20
189.749041262
 30
0.0
 11
-1210.425991852
 21
189.749041262
 31
0.0
  0
LINE
  5
5FB
330
1F
100
AcDbEntity
  8
1
  6
SOLID
 62
     7
100
AcDbLine
 10
-1342.42611621
 20
17.749023438
 30
0.0
 11
-1400.547766466
 21
16.227054462
 31
0.0
  0
LINE
  5
5FC
330
1F
100
AcDbEntity
  8
1
  6
SOLID
 62
     7
100
AcDbLine
 10
-1420.42611621
 20
131.089491128
 30
0.0
 11
-1420.42611621
 21
14.749023438
 31
0.0
  0
LINE
  5
5FD
330
1F
100
AcDbEntity
  8
1
  6
SOLID
 62
     7
100
AcDbLine
 10
-1403.42611621
 20
79.749023438
 30
0.0
 11
-1403.42611621
 21
14.749023438
 31
0.0
  0
LINE
  5
5FE
330
1F
100
AcDbEntity
  8
1
  6
SOLID
 62
     7
100
AcDbLine
 10
-1403.42611621
 20
14.749023437
 30
0.0
 11
-1420.42611621
 21
14.749023437
 31
0.0
  0
LINE
  5
5FF
330
1F
100
AcDbEntity
  8
1
  6
SOLID
 62
     7
100
AcDbLine
 10
-1403.42611621
 20
294.749023438
 30
0.0
 11
-1420.42611621
 21
294.749023438
 31
0.0
  0
LINE
  5
600
330
1F
100
AcDbEntity
  8
1
  6
SOLID
 62
     7
100
AcDbLine
 10
-1403.42611621
 20
294.749023438
 30
0.0
 11
-1403.42611621
 21
229.749023438
 31
0.0
  0
LINE
  5
601
330
1F
100
AcDbEntity
  8
1
  6
SOLID
 62
     7
100
AcDbLine
 10
-1342.42611621
 20
37.749023438
 30
0.0
 11
-1342.42611621
 21
17.749023438
 31
0.0
  0
LINE
  5
602
330
1F
100
AcDbEntity
  8
1
  6
SOLID
 62
     7
100
AcDbLine
 10
-1387.42611621
 20
67.749023437
 30
0.0
 11
-1401.42611621
 21
67.749023437
 31
0.0
  0
LINE
  5
603
330
1F
100
AcDbEntity
  8
1
  6
SOLID
 62
     7
100
AcDbLine
 10
-1385.42611621
 20
79.749023438
 30
0.0
 11
-1385.42611621
 21
69.749023438
 31
0.0
  0
ARC
  5
604
330
1F
100
AcDbEntity
  8
1
  6
SOLID
 62
     7
100
AcDbCircle
 10
-1387.42611621
 20
69.749023437
 30
0.0
 40
2.0
100
AcDbArc
 50
270.0
 51
0.0
  0
ARC
  5
605
330
1F
100
AcDbEntity
  8
1
  6
SOLID
 62
     7
100
AcDbCircle
 10
-1401.42611621
 20
65.749023437
 30
0.0
 40
2.0
100
AcDbArc
 50
90.0
 51
180.0
  0
ARC
  5
606
330
1F
100
AcDbEntity
  8
1
  6
SOLID
 62
     7
100
AcDbCircle
 10
-1387.42611621
 20
239.749023438
 30
0.0
 40
2.0
100
AcDbArc
 50
0.0
 51
90.0
  0
LINE
  5
607
330
1F
100
AcDbEntity
  8
1
  6
SOLID
 62
     7
100
AcDbLine
 10
-1385.42611621
 20
229.749023438
 30
0.0
 11
-1385.42611621
 21
239.749023438
 31
0.0
  0
ARC
  5
608
330
1F
100
AcDbEntity
  8
1
  6
SOLID
 62
     7
100
AcDbCircle
 10
-1401.42611621
 20
243.749023438
 30
0.0
 40
2.0
100
AcDbArc
 50
180.0
 51
270.0
  0
LINE
  5
609
330
1F
100
AcDbEntity
  8
1
  6
SOLID
 62
     7
100
AcDbLine
 10
-1387.42611621
 20
241.749023438
 30
0.0
 11
-1401.42611621
 21
241.749023438
 31
0.0
  0
LINE
  5
60A
330
1F
100
AcDbEntity
  8
1
  6
CENTER
 62
     7
100
AcDbLine
 10
-968.656666111
 20
154.749023438
 30
0.0
 11
-1549.826191441
 21
154.749023438
 31
0.0
  0
LINE
  5
60B
330
1F
100
AcDbEntity
  8
1
  6
SOLID
 62
     7
100
AcDbLine
 10
-1523.226339826
 20
266.820942402
 30
0.0
 11
-1523.226339826
 21
280.677348614
 31
0.0
  0
ARC
  5
60C
330
1F
100
AcDbEntity
  8
1
  6
SOLID
 62
     7
100
AcDbCircle
 10
-1519.137024705
 20
266.820942402
 30
0.0
 40
4.089315121
100
AcDbArc
 50
145.615740999
 51
214.384259001
  0
LINE
  5
60D
330
1F
100
AcDbEntity
  8
1
  6
SOLID
 62
     7
100
AcDbLine
 10
-1522.511808404
 20
269.130343437
 30
0.0
 11
-1517.226339737
 21
269.130343437
 31
0.0
  0
ARC
  5
60E
330
1F
100
AcDbEntity
  8
1
  6
SOLID
 62
     7
100
AcDbCircle
 10
-1507.940876473
 20
273.749145508
 30
0.0
 40
15.285463353
100
AcDbArc
 50
162.412040055
 51
197.587959945
  0
LINE
  5
60F
330
1F
100
AcDbEntity
  8
1
  6
SOLID
 62
     7
100
AcDbLine
 10
-1522.511808404
 20
278.367947578
 30
0.0
 11
-1517.226339737
 21
278.367947578
 31
0.0
  0
ARC
  5
610
330
1F
100
AcDbEntity
  8
1
  6
SOLID
 62
     7
100
AcDbCircle
 10
-1519.137024705
 20
280.677348614
 30
0.0
 40
4.089315121
100
AcDbArc
 50
145.615740999
 51
214.384259001
  0
LINE
  5
611
330
1F
100
AcDbEntity
  8
1
  6
SOLID
 62
     7
100
AcDbLine
 10
-1517.226339737
 20
282.986749649
 30
0.0
 11
-1522.511808404
 21
282.986749649
 31
0.0
  0
LINE
  5
612
330
1F
100
AcDbEntity
  8
1
  6
SOLID
 62
     7
100
AcDbLine
 10
-1517.226339737
 20
264.511541367
 30
0.0
 11
-1517.226339737
 21
282.986749649
 31
0.0
  0
LINE
  5
613
330
1F
100
AcDbEntity
  8
1
  6
SOLID
 62
     7
100
AcDbLine
 10
-1522.511808404
 20
264.511541367
 30
0.0
 11
-1517.226339737
 21
264.511541367
 31
0.0
  0
LINE
  5
614
330
1F
100
AcDbEntity
  8
1
  6
SOLID
 62
     7
100
AcDbLine
 10
-1420.426284066
 20
279.749023438
 30
0.0
 11
-1438.426284066
 21
279.749023438
 31
0.0
  0
LINE
  5
615
330
1F
100
AcDbEntity
  8
1
  6
CENTER
 62
     7
100
AcDbLine
 10
-1516.826323047
 20
273.749152404
 30
0.0
 11
-1516.826323047
 21
221.999152404
 31
0.0
  0
ARC
  5
616
330
1F
100
AcDbEntity
  8
1
  6
SOLID
 62
     7
100
AcDbCircle
 10
-617.116952571
 20
600.249072552
 30
0.0
 40
5.0
100
AcDbArc
 50
14.477606223
 51
57.163881096
  0
LINE
  5
617
330
1F
100
AcDbEntity
  8
1
  6
SOLID
 62
     7
100
AcDbLine
 10
-1202.425991852
 20
799.749005613
 30
0.0
 11
-1205.425991852
 21
799.749005613
 31
0.0
  0
DIMENSION
  5
627
330
1F
100
AcDbEntity
  8
1
  6
SOLID
 62
     7
100
AcDbDimension
  2
*D21
 10
-1393.42590332
 20
368.509521484
 30
0.0
 11
-1276.349365234
 21
374.009521484
 31
0.0
 70
    32
  1
  264   
 71
     5
 42
-1.0
  3
18
100
AcDbAlignedDimension
 13
-1133.426025391
 23
424.749023438
 33
0.0
 14
-1393.42590332
 24
424.749023438
 34
0.0
100
AcDbRotatedDimension
  0
LINE
  5
628
330
1F
100
AcDbEntity
  8
1
  6
SOLID
 62
     7
100
AcDbLine
 10
-1202.425991852
 20
797.749005613
 30
0.0
 11
-1202.425991852
 21
821.749005613
 31
0.0
  0
ARC
  5
629
330
1F
100
AcDbEntity
  8
1
  6
SOLID
 62
     7
100
AcDbCircle
 10
-587.128782172
 20
616.205654366
 30
0.0
 40
3.0
100
AcDbArc
 50
322.639928744
 51
42.369942135
  0
LINE
  5
62A
330
1F
100
AcDbEntity
  8
1
  6
SOLID
 62
     7
100
AcDbLine
 10
-1189.425991852
 20
797.749005613
 30
0.0
 11
-1189.425991852
 21
821.749005613
 31
0.0
  0
LINE
  5
62B
330
1F
100
AcDbEntity
  8
1
  6
SOLID
 62
     7
100
AcDbLine
 10
-1338.425993356
 20
771.097081309
 30
0.0
 11
-1265.750096945
 21
771.097081309
 31
0.0
  0
LINE
  5
62C
330
1F
100
AcDbEntity
  8
1
  6
SOLID
 62
     7
100
AcDbLine
 10
-1338.425993356
 20
771.797081319
 30
0.0
 11
-1265.750096945
 21
771.797081319
 31
0.0
  0
LINE
  5
62D
330
1F
100
AcDbEntity
  8
1
  6
SOLID
 62
     7
100
AcDbLine
 10
-1338.425993356
 20
766.169856702
 30
0.0
 11
-1265.750096945
 21
766.169856702
 31
0.0
  0
LINE
  5
62E
330
1F
100
AcDbEntity
  8
1
  6
SOLID
 62
     7
100
AcDbLine
 10
-1338.425993356
 20
769.097081309
 30
0.0
 11
-1265.750096945
 21
769.097081309
 31
0.0
  0
LINE
  5
62F
330
1F
100
AcDbEntity
  8
1
  6
SOLID
 62
     7
100
AcDbLine
 10
-1338.425993356
 20
756.15003768
 30
0.0
 11
-1265.750096945
 21
756.15003768
 31
0.0
  0
LINE
  5
630
330
1F
100
AcDbEntity
  8
1
  6
SOLID
 62
     7
100
AcDbLine
 10
-1338.425993356
 20
761.845714829
 30
0.0
 11
-1265.750096945
 21
761.845714829
 31
0.0
  0
LINE
  5
631
330
1F
100
AcDbEntity
  8
1
  6
SOLID
 62
     7
100
AcDbLine
 10
-1338.425993356
 20
748.868233866
 30
0.0
 11
-1265.750096945
 21
748.868233866
 31
0.0
  0
LINE
  5
632
330
1F
100
AcDbEntity
  8
1
  6
SOLID
 62
     7
100
AcDbLine
 10
-1338.425993356
 20
739.470399928
 30
0.0
 11
-1265.750096945
 21
739.470399928
 31
0.0
  0
LINE
  5
633
330
1F
100
AcDbEntity
  8
1
  6
SOLID
 62
     7
100
AcDbLine
 10
-1390.625933647
 20
721.749023438
 30
0.0
 11
-1265.750096945
 21
721.749023438
 31
0.0
  0
LINE
  5
634
330
1F
100
AcDbEntity
  8
1
  6
SOLID
 62
     7
100
AcDbLine
 10
-1338.425993356
 20
717.349019328
 30
0.0
 11
-1265.750096945
 21
717.349019328
 31
0.0
  0
LINE
  5
635
330
1F
100
AcDbEntity
  8
1
  6
SOLID
 62
     7
100
AcDbLine
 10
-1338.425993356
 20
679.749028821
 30
0.0
 11
-1265.750096945
 21
679.749028821
 31
0.0
  0
LINE
  5
636
330
1F
100
AcDbEntity
  8
1
  6
CENTER
 62
     7
100
AcDbLine
 10
-1553.245911914
 20
604.749023438
 30
0.0
 11
-1265.750096945
 21
604.749023438
 31
0.0
  0
LINE
  5
637
330
1F
100
AcDbEntity
  8
1
  6
SOLID
 62
     7
100
AcDbLine
 10
-1338.425993356
 20
529.749018054
 30
0.0
 11
-1265.750096945
 21
529.749018054
 31
0.0
  0
LINE
  5
638
330
1F
100
AcDbEntity
  8
1
  6
SOLID
 62
     7
100
AcDbLine
 10
-1338.425993356
 20
492.149027547
 30
0.0
 11
-1265.750096945
 21
492.149027547
 31
0.0
  0
LINE
  5
639
330
1F
100
AcDbEntity
  8
1
  6
SOLID
 62
     7
100
AcDbLine
 10
-1338.425993356
 20
492.149027547
 30
0.0
 11
-1265.750096945
 21
492.149027547
 31
0.0
  0
LINE
  5
63A
330
1F
100
AcDbEntity
  8
1
  6
SOLID
 62
     7
100
AcDbLine
 10
-1390.625933647
 20
487.749023438
 30
0.0
 11
-1265.750096945
 21
487.749023438
 31
0.0
  0
LINE
  5
63B
330
1F
100
AcDbEntity
  8
1
  6
SOLID
 62
     7
100
AcDbLine
 10
-1338.425993356
 20
470.027646947
 30
0.0
 11
-1265.750096945
 21
470.027646947
 31
0.0
  0
LINE
  5
63C
330
1F
100
AcDbEntity
  8
1
  6
SOLID
 62
     7
100
AcDbLine
 10
-1338.425993356
 20
460.629813009
 30
0.0
 11
-1265.750096945
 21
460.629813009
 31
0.0
  0
LINE
  5
63D
330
1F
100
AcDbEntity
  8
1
  6
SOLID
 62
     7
100
AcDbLine
 10
-1338.425993356
 20
453.348009195
 30
0.0
 11
-1265.750096945
 21
453.348009195
 31
0.0
  0
LINE
  5
63E
330
1F
100
AcDbEntity
  8
1
  6
SOLID
 62
     7
100
AcDbLine
 10
-1338.425993356
 20
447.652332046
 30
0.0
 11
-1265.750096945
 21
447.652332046
 31
0.0
  0
LINE
  5
63F
330
1F
100
AcDbEntity
  8
1
  6
SOLID
 62
     7
100
AcDbLine
 10
-1338.425993356
 20
443.328190173
 30
0.0
 11
-1265.750096945
 21
443.328190173
 31
0.0
  0
LINE
  5
640
330
1F
100
AcDbEntity
  8
1
  6
SOLID
 62
     7
100
AcDbLine
 10
-1338.425993356
 20
440.400965566
 30
0.0
 11
-1265.750096945
 21
440.400965566
 31
0.0
  0
LINE
  5
641
330
1F
100
AcDbEntity
  8
1
  6
SOLID
 62
     7
100
AcDbLine
 10
-1338.425993356
 20
438.400965566
 30
0.0
 11
-1265.750096945
 21
438.400965566
 31
0.0
  0
LINE
  5
642
330
1F
100
AcDbEntity
  8
1
  6
SOLID
 62
     7
100
AcDbLine
 10
-1338.425993356
 20
437.700965556
 30
0.0
 11
-1265.750096945
 21
437.700965556
 31
0.0
  0
LINE
  5
643
330
1F
100
AcDbEntity
  8
1
  6
SOLID
 62
     7
100
AcDbLine
 10
-1338.425993356
 20
287.119144386
 30
0.0
 11
-1265.750096945
 21
287.119144386
 31
0.0
  0
LINE
  5
644
330
1F
100
AcDbEntity
  8
1
  6
SOLID
 62
     7
100
AcDbLine
 10
-1338.425993356
 20
278.836432935
 30
0.0
 11
-1265.750096945
 21
278.836432935
 31
0.0
  0
LINE
  5
645
330
1F
100
AcDbEntity
  8
1
  6
SOLID
 62
     7
100
AcDbLine
 10
-1338.425993356
 20
276.127711437
 30
0.0
 11
-1265.750096945
 21
276.127711437
 31
0.0
  0
LINE
  5
646
330
1F
100
AcDbEntity
  8
1
  6
SOLID
 62
     7
100
AcDbLine
 10
-1390.625933647
 20
271.749023438
 30
0.0
 11
-1265.750096945
 21
271.749023438
 31
0.0
  0
LINE
  5
647
330
1F
100
AcDbEntity
  8
1
  6
SOLID
 62
     7
100
AcDbLine
 10
-1338.425993356
 20
257.749023438
 30
0.0
 11
-1265.750096945
 21
257.749023438
 31
0.0
  0
LINE
  5
648
330
1F
100
AcDbEntity
  8
1
  6
SOLID
 62
     7
100
AcDbLine
 10
-1338.425993356
 20
254.108222
 30
0.0
 11
-1265.750096945
 21
254.108222
 31
0.0
  0
LINE
  5
649
330
1F
100
AcDbEntity
  8
1
  6
SOLID
 62
     7
100
AcDbLine
 10
-1338.425993356
 20
251.389824875
 30
0.0
 11
-1265.750096945
 21
251.389824875
 31
0.0
  0
LINE
  5
64A
330
1F
100
AcDbEntity
  8
1
  6
SOLID
 62
     7
100
AcDbLine
 10
-1338.425993356
 20
240.108222
 30
0.0
 11
-1265.750096945
 21
240.108222
 31
0.0
  0
LINE
  5
64B
330
1F
100
AcDbEntity
  8
1
  6
SOLID
 62
     7
100
AcDbLine
 10
-1338.425993356
 20
237.389824875
 30
0.0
 11
-1265.750096945
 21
237.389824875
 31
0.0
  0
LINE
  5
64C
330
1F
100
AcDbEntity
  8
1
  6
SOLID
 62
     7
100
AcDbLine
 10
-1338.425993356
 20
72.108222
 30
0.0
 11
-1265.750096945
 21
72.108222
 31
0.0
  0
LINE
  5
64D
330
1F
100
AcDbEntity
  8
1
  6
SOLID
 62
     7
100
AcDbLine
 10
-1338.425993356
 20
69.389824875
 30
0.0
 11
-1265.750096945
 21
69.389824875
 31
0.0
  0
LINE
  5
64E
330
1F
100
AcDbEntity
  8
1
  6
SOLID
 62
     7
100
AcDbLine
 10
-1338.425993356
 20
58.108222
 30
0.0
 11
-1265.750096945
 21
58.108222
 31
0.0
  0
LINE
  5
64F
330
1F
100
AcDbEntity
  8
1
  6
SOLID
 62
     7
100
AcDbLine
 10
-1338.425993356
 20
55.389824875
 30
0.0
 11
-1265.750096945
 21
55.389824875
 31
0.0
  0
LINE
  5
650
330
1F
100
AcDbEntity
  8
1
  6
SOLID
 62
     7
100
AcDbLine
 10
-1338.425993356
 20
51.749023438
 30
0.0
 11
-1265.750096945
 21
51.749023438
 31
0.0
  0
LINE
  5
651
330
1F
100
AcDbEntity
  8
1
  6
SOLID
 62
     7
100
AcDbLine
 10
-1390.625933647
 20
37.749023438
 30
0.0
 11
-1265.750096945
 21
37.749023438
 31
0.0
  0
LINE
  5
652
330
1F
100
AcDbEntity
  8
1
  6
SOLID
 62
     7
100
AcDbLine
 10
-1338.425993356
 20
33.370335438
 30
0.0
 11
-1265.750096945
 21
33.370335438
 31
0.0
  0
LINE
  5
653
330
1F
100
AcDbEntity
  8
1
  6
SOLID
 62
     7
100
AcDbLine
 10
-1338.425993356
 20
30.66161394
 30
0.0
 11
-1265.750096945
 21
30.66161394
 31
0.0
  0
LINE
  5
654
330
1F
100
AcDbEntity
  8
1
  6
SOLID
 62
     7
100
AcDbLine
 10
-1338.425993356
 20
22.378902489
 30
0.0
 11
-1265.750096945
 21
22.378902489
 31
0.0
  0
LINE
  5
655
330
1F
100
AcDbEntity
  8
1
  6
SOLID
 62
     7
100
AcDbLine
 10
-1338.425993356
 20
17.749023438
 30
0.0
 11
-1265.750096945
 21
17.749023438
 31
0.0
  0
LINE
  5
656
330
1F
100
AcDbEntity
  8
1
  6
SOLID
 62
     7
100
AcDbLine
 10
-1189.425991852
 20
821.749005613
 30
0.0
 11
-1202.425991852
 21
821.749005613
 31
0.0
  0
ARC
  5
657
330
1F
100
AcDbEntity
  8
1
  6
SOLID
 62
     7
100
AcDbCircle
 10
-616.115881087
 20
609.124292261
 30
0.0
 40
3.0
100
AcDbArc
 50
165.086280637
 51
237.163881096
  0
LINE
  5
658
330
1F
100
AcDbEntity
  8
1
  6
SOLID
 62
     7
100
AcDbLine
 10
-1189.425991852
 20
797.749005613
 30
0.0
 11
-1202.425991852
 21
797.749005613
 31
0.0
  0
LINE
  5
659
330
1F
100
AcDbEntity
  8
1
  6
SOLID
 62
     7
100
AcDbLine
 10
-1186.425991852
 20
820.749005613
 30
0.0
 11
-1189.425991852
 21
820.749005613
 31
0.0
  0
LINE
  5
65A
330
1F
100
AcDbEntity
  8
1
  6
SOLID
 62
     7
100
AcDbLine
 10
-1186.425991852
 20
798.749005613
 30
0.0
 11
-1189.425991852
 21
798.749005613
 31
0.0
  0
LINE
  5
65B
330
1F
100
AcDbEntity
  8
1
  6
SOLID
 62
     7
100
AcDbLine
 10
-1183.425991852
 20
801.749005613
 30
0.0
 11
-1183.425991852
 21
817.749005613
 31
0.0
  0
ARC
  5
65C
330
1F
100
AcDbEntity
  8
1
  6
SOLID
 62
     7
100
AcDbCircle
 10
-1186.425991852
 20
817.749005613
 30
0.0
 40
3.0
100
AcDbArc
 50
0.0
 51
90.0
  0
ARC
  5
65D
330
1F
100
AcDbEntity
  8
1
  6
SOLID
 62
     7
100
AcDbCircle
 10
-1186.425991852
 20
801.749005613
 30
0.0
 40
3.0
100
AcDbArc
 50
270.0
 51
0.0
  0
LINE
  5
65E
330
1F
100
AcDbEntity
  8
1
  6
CENTER
 62
     7
100
AcDbLine
 10
-1181.20541466
 20
809.749005613
 30
0.0
 11
-1189.425991852
 21
809.749005613
 31
0.0
  0
LINE
  5
65F
330
1F
100
AcDbEntity
  8
1
  6
SOLID
 62
     7
100
AcDbLine
 10
-1189.425991852
 20
809.749005613
 30
0.0
 11
-1202.425991852
 21
809.749005613
 31
0.0
  0
LINE
  5
660
330
1F
100
AcDbEntity
  8
1
  6
CENTER
 62
     7
100
AcDbLine
 10
-1202.425991852
 20
809.749005613
 30
0.0
 11
-1205.425991852
 21
809.749005613
 31
0.0
  0
LINE
  5
661
330
1F
100
AcDbEntity
  8
1
  6
SOLID
 62
     7
100
AcDbLine
 10
-1205.425991852
 20
809.749005613
 30
0.0
 11
-1210.425991852
 21
809.749005613
 31
0.0
  0
LINE
  5
662
330
1F
100
AcDbEntity
  8
1
  6
SOLID
 62
     7
100
AcDbLine
 10
-1186.425991852
 20
791.749005613
 30
0.0
 11
-1186.425991852
 21
798.749005613
 31
0.0
  0
LINE
  5
663
330
1F
100
AcDbEntity
  8
1
  6
SOLID
 62
     7
100
AcDbLine
 10
-1201.425991852
 20
791.749005613
 30
0.0
 11
-1201.425991852
 21
797.749005613
 31
0.0
  0
LINE
  5
664
330
1F
100
AcDbEntity
  8
1
  6
SOLID
 62
     7
100
AcDbLine
 10
-1204.425991852
 20
791.749005613
 30
0.0
 11
-1204.425991852
 21
799.749005613
 31
0.0
  0
LINE
  5
665
330
1F
100
AcDbEntity
  8
1
  6
SOLID
 62
     7
100
AcDbLine
 10
-1188.425948355
 20
257.749023438
 30
0.0
 11
-1188.425948355
 21
207.749041262
 31
0.0
  0
LINE
  5
666
330
1F
100
AcDbEntity
  8
1
  6
SOLID
 62
     7
100
AcDbLine
 10
-1184.425948355
 20
257.749023438
 30
0.0
 11
-1184.425948355
 21
206.249041262
 31
0.0
  0
LINE
  5
667
330
1F
100
AcDbEntity
  8
1
  6
SOLID
 62
     7
100
AcDbLine
 10
-1184.425948355
 20
51.749023438
 30
0.0
 11
-1184.425948355
 21
101.51301219
 31
0.0
  0
LINE
  5
668
330
1F
100
AcDbEntity
  8
1
  6
SOLID
 62
     7
100
AcDbLine
 10
-1188.425948355
 20
51.749023438
 30
0.0
 11
-1188.425948355
 21
100.749041262
 31
0.0
  0
LINE
  5
669
330
1F
100
AcDbEntity
  8
1
  6
CENTER
 62
     7
100
AcDbLine
 10
-1215.425991852
 20
154.749023438
 30
0.0
 11
-1215.425991852
 21
148.999023438
 31
0.0
  0
LINE
  5
66A
330
1F
100
AcDbEntity
  8
1
  6
CENTER
 62
     7
100
AcDbLine
 10
-1215.425991852
 20
154.749023438
 30
0.0
 11
-1215.425991852
 21
160.499023438
 31
0.0
  0
LINE
  5
66B
330
1F
100
AcDbEntity
  8
1
  6
CENTER
 62
     7
100
AcDbLine
 10
-1215.425991852
 20
154.749023438
 30
0.0
 11
-1221.175991852
 21
154.749023438
 31
0.0
  0
LINE
  5
66C
330
1F
100
AcDbEntity
  8
1
  6
CENTER
 62
     7
100
AcDbLine
 10
-1215.425991852
 20
154.749023438
 30
0.0
 11
-1209.675991852
 21
154.749023438
 31
0.0
  0
CIRCLE
  5
66D
330
1F
100
AcDbEntity
  8
1
  6
SOLID
 62
     7
100
AcDbCircle
 10
-1215.425994873
 20
154.749023438
 30
0.0
 40
5.0
  0
LINE
  5
66E
330
1F
100
AcDbEntity
  8
1
  6
SOLID
 62
     7
100
AcDbLine
 10
-1212.925994873
 20
153.305647731
 30
0.0
 11
-1212.925994873
 21
156.192399144
 31
0.0
  0
LINE
  5
66F
330
1F
100
AcDbEntity
  8
1
  6
SOLID
 62
     7
100
AcDbLine
 10
-1215.425994873
 20
151.862272024
 30
0.0
 11
-1212.925994826
 21
153.30564775
 31
0.0
  0
LINE
  5
670
330
1F
100
AcDbEntity
  8
1
  6
SOLID
 62
     7
100
AcDbLine
 10
-1217.925994873
 20
153.305647731
 30
0.0
 11
-1215.425994826
 21
151.862272005
 31
0.0
  0
LINE
  5
671
330
1F
100
AcDbEntity
  8
1
  6
SOLID
 62
     7
100
AcDbLine
 10
-1217.925994873
 20
156.192399144
 30
0.0
 11
-1217.925994873
 21
153.305647731
 31
0.0
  0
LINE
  5
672
330
1F
100
AcDbEntity
  8
1
  6
SOLID
 62
     7
100
AcDbLine
 10
-1215.425994873
 20
157.635774851
 30
0.0
 11
-1217.92599492
 21
156.192399125
 31
0.0
  0
LINE
  5
673
330
1F
100
AcDbEntity
  8
1
  6
SOLID
 62
     7
100
AcDbLine
 10
-1212.925994873
 20
156.192399144
 30
0.0
 11
-1215.42599492
 21
157.63577487
 31
0.0
  0
LINE
  5
674
330
1F
100
AcDbEntity
  8
1
  6
CENTER
 62
     7
100
AcDbLine
 10
-1318.925991852
 20
84.749023438
 30
0.0
 11
-1318.925991852
 21
78.999023438
 31
0.0
  0
LINE
  5
675
330
1F
100
AcDbEntity
  8
1
  6
CENTER
 62
     7
100
AcDbLine
 10
-1318.925991852
 20
84.749023438
 30
0.0
 11
-1318.925991852
 21
90.499023438
 31
0.0
  0
LINE
  5
676
330
1F
100
AcDbEntity
  8
1
  6
CENTER
 62
     7
100
AcDbLine
 10
-1318.925991852
 20
84.749023438
 30
0.0
 11
-1324.675991852
 21
84.749023438
 31
0.0
  0
LINE
  5
677
330
1F
100
AcDbEntity
  8
1
  6
CENTER
 62
     7
100
AcDbLine
 10
-1318.925991852
 20
84.749023438
 30
0.0
 11
-1313.175991852
 21
84.749023438
 31
0.0
  0
CIRCLE
  5
678
330
1F
100
AcDbEntity
  8
1
  6
SOLID
 62
     7
100
AcDbCircle
 10
-1318.925994873
 20
84.749023438
 30
0.0
 40
5.0
  0
LINE
  5
679
330
1F
100
AcDbEntity
  8
1
  6
SOLID
 62
     7
100
AcDbLine
 10
-1316.425994873
 20
83.305647731
 30
0.0
 11
-1316.425994873
 21
86.192399144
 31
0.0
  0
LINE
  5
67A
330
1F
100
AcDbEntity
  8
1
  6
SOLID
 62
     7
100
AcDbLine
 10
-1318.925994873
 20
81.862272024
 30
0.0
 11
-1316.425994826
 21
83.30564775
 31
0.0
  0
LINE
  5
67B
330
1F
100
AcDbEntity
  8
1
  6
SOLID
 62
     7
100
AcDbLine
 10
-1321.425994873
 20
83.305647731
 30
0.0
 11
-1318.925994826
 21
81.862272005
 31
0.0
  0
LINE
  5
67C
330
1F
100
AcDbEntity
  8
1
  6
SOLID
 62
     7
100
AcDbLine
 10
-1321.425994873
 20
86.192399144
 30
0.0
 11
-1321.425994873
 21
83.305647731
 31
0.0
  0
LINE
  5
67D
330
1F
100
AcDbEntity
  8
1
  6
SOLID
 62
     7
100
AcDbLine
 10
-1318.925994873
 20
87.635774851
 30
0.0
 11
-1321.42599492
 21
86.192399125
 31
0.0
  0
LINE
  5
67E
330
1F
100
AcDbEntity
  8
1
  6
SOLID
 62
     7
100
AcDbLine
 10
-1316.425994873
 20
86.192399144
 30
0.0
 11
-1318.92599492
 21
87.63577487
 31
0.0
  0
LINE
  5
67F
330
1F
100
AcDbEntity
  8
1
  6
CENTER
 62
     7
100
AcDbLine
 10
-1318.925991852
 20
224.749023438
 30
0.0
 11
-1318.925991852
 21
218.999023438
 31
0.0
  0
LINE
  5
680
330
1F
100
AcDbEntity
  8
1
  6
CENTER
 62
     7
100
AcDbLine
 10
-1318.925991852
 20
224.749023438
 30
0.0
 11
-1318.925991852
 21
230.499023438
 31
0.0
  0
LINE
  5
681
330
1F
100
AcDbEntity
  8
1
  6
CENTER
 62
     7
100
AcDbLine
 10
-1318.925991852
 20
224.749023438
 30
0.0
 11
-1324.675991852
 21
224.749023438
 31
0.0
  0
LINE
  5
682
330
1F
100
AcDbEntity
  8
1
  6
CENTER
 62
     7
100
AcDbLine
 10
-1318.925991852
 20
224.749023438
 30
0.0
 11
-1313.175991852
 21
224.749023438
 31
0.0
  0
CIRCLE
  5
683
330
1F
100
AcDbEntity
  8
1
  6
SOLID
 62
     7
100
AcDbCircle
 10
-1318.925994873
 20
224.749023438
 30
0.0
 40
5.0
  0
LINE
  5
684
330
1F
100
AcDbEntity
  8
1
  6
SOLID
 62
     7
100
AcDbLine
 10
-1316.425994873
 20
223.305647731
 30
0.0
 11
-1316.425994873
 21
226.192399144
 31
0.0
  0
LINE
  5
685
330
1F
100
AcDbEntity
  8
1
  6
SOLID
 62
     7
100
AcDbLine
 10
-1318.925994873
 20
221.862272024
 30
0.0
 11
-1316.425994826
 21
223.30564775
 31
0.0
  0
LINE
  5
686
330
1F
100
AcDbEntity
  8
1
  6
SOLID
 62
     7
100
AcDbLine
 10
-1321.425994873
 20
223.305647731
 30
0.0
 11
-1318.925994826
 21
221.862272005
 31
0.0
  0
LINE
  5
687
330
1F
100
AcDbEntity
  8
1
  6
SOLID
 62
     7
100
AcDbLine
 10
-1321.425994873
 20
226.192399144
 30
0.0
 11
-1321.425994873
 21
223.305647731
 31
0.0
  0
LINE
  5
688
330
1F
100
AcDbEntity
  8
1
  6
SOLID
 62
     7
100
AcDbLine
 10
-1318.925994873
 20
227.635774851
 30
0.0
 11
-1321.42599492
 21
226.192399125
 31
0.0
  0
LINE
  5
689
330
1F
100
AcDbEntity
  8
1
  6
SOLID
 62
     7
100
AcDbLine
 10
-1316.425994873
 20
226.192399144
 30
0.0
 11
-1318.92599492
 21
227.63577487
 31
0.0
  0
LINE
  5
68A
330
1F
100
AcDbEntity
  8
1
  6
CENTER
 62
     7
100
AcDbLine
 10
-551.188534898
 20
604.749101156
 30
0.0
 11
-551.188534898
 21
598.999101156
 31
0.0
  0
LINE
  5
68B
330
1F
100
AcDbEntity
  8
1
  6
CENTER
 62
     7
100
AcDbLine
 10
-551.188534898
 20
604.749101156
 30
0.0
 11
-551.188534898
 21
610.499101156
 31
0.0
  0
LINE
  5
68C
330
1F
100
AcDbEntity
  8
1
  6
CENTER
 62
     7
100
AcDbLine
 10
-551.188534898
 20
604.749101156
 30
0.0
 11
-556.938534898
 21
604.749101156
 31
0.0
  0
LINE
  5
68D
330
1F
100
AcDbEntity
  8
1
  6
CENTER
 62
     7
100
AcDbLine
 10
-551.188534898
 20
604.749101156
 30
0.0
 11
-545.438534898
 21
604.749101156
 31
0.0
  0
CIRCLE
  5
68E
330
1F
100
AcDbEntity
  8
1
  6
SOLID
 62
     7
100
AcDbCircle
 10
-551.188537598
 20
604.749145508
 30
0.0
 40
5.0
  0
LINE
  5
68F
330
1F
100
AcDbEntity
  8
1
  6
SOLID
 62
     7
100
AcDbLine
 10
-548.688537598
 20
603.305769801
 30
0.0
 11
-548.688537598
 21
606.192521214
 31
0.0
  0
LINE
  5
690
330
1F
100
AcDbEntity
  8
1
  6
SOLID
 62
     7
100
AcDbLine
 10
-551.188537598
 20
601.862394094
 30
0.0
 11
-548.688537551
 21
603.305769821
 31
0.0
  0
LINE
  5
691
330
1F
100
AcDbEntity
  8
1
  6
SOLID
 62
     7
100
AcDbLine
 10
-553.688537598
 20
603.305769801
 30
0.0
 11
-551.188537551
 21
601.862394075
 31
0.0
  0
LINE
  5
692
330
1F
100
AcDbEntity
  8
1
  6
SOLID
 62
     7
100
AcDbLine
 10
-553.688537598
 20
606.192521214
 30
0.0
 11
-553.688537598
 21
603.305769801
 31
0.0
  0
LINE
  5
693
330
1F
100
AcDbEntity
  8
1
  6
SOLID
 62
     7
100
AcDbLine
 10
-551.188537598
 20
607.635896921
 30
0.0
 11
-553.688537645
 21
606.192521195
 31
0.0
  0
LINE
  5
694
330
1F
100
AcDbEntity
  8
1
  6
SOLID
 62
     7
100
AcDbLine
 10
-548.688537598
 20
606.192521214
 30
0.0
 11
-551.188537645
 21
607.635896941
 31
0.0
  0
LINE
  5
695
330
1F
100
AcDbEntity
  8
1
  6
SOLID
 62
     7
100
AcDbLine
 10
-1132.625964165
 20
273.842289925
 30
0.0
 11
-1132.625964165
 21
255.65575695
 31
0.0
  0
LINE
  5
696
330
1F
100
AcDbEntity
  8
1
  6
SOLID
 62
     7
100
AcDbLine
 10
-1144.488142014
 20
270.811201096
 30
0.0
 11
-1133.563786506
 21
270.811201096
 31
0.0
  0
LINE
  5
697
330
1F
100
AcDbEntity
  8
1
  6
SOLID
 62
     7
100
AcDbLine
 10
-1145.425964355
 20
255.65575695
 30
0.0
 11
-1145.425964355
 21
273.842289925
 31
0.0
  0
LINE
  5
698
330
1F
100
AcDbEntity
  8
1
  6
SOLID
 62
     7
100
AcDbLine
 10
-1144.488142014
 20
258.686845779
 30
0.0
 11
-1133.563786506
 21
258.686845779
 31
0.0
  0
ARC
  5
699
330
1F
100
AcDbEntity
  8
1
  6
SOLID
 62
     7
100
AcDbCircle
 10
-1137.99319087
 20
255.65575695
 30
0.0
 40
5.367226705
100
AcDbArc
 50
325.615745828
 51
34.384254172
  0
ARC
  5
69A
330
1F
100
AcDbEntity
  8
1
  6
SOLID
 62
     7
100
AcDbCircle
 10
-1152.688137472
 20
264.749023438
 30
0.0
 40
20.062173307
100
AcDbArc
 50
342.412042639
 51
17.587957361
  0
ARC
  5
69B
330
1F
100
AcDbEntity
  8
1
  6
SOLID
 62
     7
100
AcDbCircle
 10
-1137.99319087
 20
273.842289925
 30
0.0
 40
5.367226705
100
AcDbArc
 50
325.615745828
 51
34.384254172
  0
LINE
  5
69C
330
1F
100
AcDbEntity
  8
1
  6
SOLID
 62
     7
100
AcDbLine
 10
-1144.488142014
 20
276.873378754
 30
0.0
 11
-1133.563786506
 21
276.873378754
 31
0.0
  0
ARC
  5
69D
330
1F
100
AcDbEntity
  8
1
  6
SOLID
 62
     7
100
AcDbCircle
 10
-1140.058737651
 20
273.842289925
 30
0.0
 40
5.367226705
100
AcDbArc
 50
145.615745828
 51
214.384254172
  0
ARC
  5
69E
330
1F
100
AcDbEntity
  8
1
  6
SOLID
 62
     7
100
AcDbCircle
 10
-1125.363791048
 20
264.749023438
 30
0.0
 40
20.062173307
100
AcDbArc
 50
162.412042639
 51
197.587957361
  0
ARC
  5
69F
330
1F
100
AcDbEntity
  8
1
  6
SOLID
 62
     7
100
AcDbCircle
 10
-1140.058737651
 20
255.65575695
 30
0.0
 40
5.367226705
100
AcDbArc
 50
145.615745828
 51
214.384254172
  0
LINE
  5
6A0
330
1F
100
AcDbEntity
  8
1
  6
SOLID
 62
     7
100
AcDbLine
 10
-1133.563786506
 20
252.624668121
 30
0.0
 11
-1144.488142014
 21
252.624668121
 31
0.0
  0
LINE
  5
6A1
330
1F
100
AcDbEntity
  8
1
  6
CENTER
 62
     7
100
AcDbLine
 10
-1397.025948259
 20
264.749023438
 30
0.0
 11
-1405.345948431
 21
264.749023438
 31
0.0
  0
LINE
  5
6A2
330
1F
100
AcDbEntity
  8
1
  6
CENTER
 62
     7
100
AcDbLine
 10
-1397.025948259
 20
264.749023438
 30
0.0
 11
-1388.705948087
 21
264.749023438
 31
0.0
  0
LINE
  5
6A3
330
1F
100
AcDbEntity
  8
1
  6
SOLID
 62
     7
100
AcDbLine
 10
-1390.625933647
 20
273.842289925
 30
0.0
 11
-1390.625933647
 21
255.65575695
 31
0.0
  0
LINE
  5
6A4
330
1F
100
AcDbEntity
  8
1
  6
SOLID
 62
     7
100
AcDbLine
 10
-1402.488111496
 20
270.811201096
 30
0.0
 11
-1391.563755989
 21
270.811201096
 31
0.0
  0
LINE
  5
6A5
330
1F
100
AcDbEntity
  8
1
  6
SOLID
 62
     7
100
AcDbLine
 10
-1403.425933838
 20
255.65575695
 30
0.0
 11
-1403.425933838
 21
273.842289925
 31
0.0
  0
LINE
  5
6A6
330
1F
100
AcDbEntity
  8
1
  6
SOLID
 62
     7
100
AcDbLine
 10
-1402.488111496
 20
258.686845779
 30
0.0
 11
-1391.563755989
 21
258.686845779
 31
0.0
  0
ARC
  5
6A7
330
1F
100
AcDbEntity
  8
1
  6
SOLID
 62
     7
100
AcDbCircle
 10
-1395.993160352
 20
255.65575695
 30
0.0
 40
5.367226705
100
AcDbArc
 50
325.615745828
 51
34.384254172
  0
ARC
  5
6A8
330
1F
100
AcDbEntity
  8
1
  6
SOLID
 62
     7
100
AcDbCircle
 10
-1410.688106954
 20
264.749023438
 30
0.0
 40
20.062173307
100
AcDbArc
 50
342.412042639
 51
17.587957361
  0
ARC
  5
6A9
330
1F
100
AcDbEntity
  8
1
  6
SOLID
 62
     7
100
AcDbCircle
 10
-1395.993160352
 20
273.842289925
 30
0.0
 40
5.367226705
100
AcDbArc
 50
325.615745828
 51
34.384254172
  0
LINE
  5
6AA
330
1F
100
AcDbEntity
  8
1
  6
SOLID
 62
     7
100
AcDbLine
 10
-1402.488111496
 20
276.873378754
 30
0.0
 11
-1391.563755989
 21
276.873378754
 31
0.0
  0
ARC
  5
6AB
330
1F
100
AcDbEntity
  8
1
  6
SOLID
 62
     7
100
AcDbCircle
 10
-1398.058707133
 20
273.842289925
 30
0.0
 40
5.367226705
100
AcDbArc
 50
145.615745828
 51
214.384254172
  0
ARC
  5
6AC
330
1F
100
AcDbEntity
  8
1
  6
SOLID
 62
     7
100
AcDbCircle
 10
-1383.363760531
 20
264.749023438
 30
0.0
 40
20.062173307
100
AcDbArc
 50
162.412042639
 51
197.587957361
  0
ARC
  5
6AD
330
1F
100
AcDbEntity
  8
1
  6
SOLID
 62
     7
100
AcDbCircle
 10
-1398.058707133
 20
255.65575695
 30
0.0
 40
5.367226705
100
AcDbArc
 50
145.615745828
 51
214.384254172
  0
LINE
  5
6AE
330
1F
100
AcDbEntity
  8
1
  6
SOLID
 62
     7
100
AcDbLine
 10
-1391.563755989
 20
252.624668121
 30
0.0
 11
-1402.488111496
 21
252.624668121
 31
0.0
  0
LINE
  5
6AF
330
1F
100
AcDbEntity
  8
1
  6
SOLID
 62
     7
100
AcDbLine
 10
-1132.625964165
 20
35.65575695
 30
0.0
 11
-1132.625964165
 21
53.842289925
 31
0.0
  0
LINE
  5
6B0
330
1F
100
AcDbEntity
  8
1
  6
SOLID
 62
     7
100
AcDbLine
 10
-1144.488142014
 20
38.686845779
 30
0.0
 11
-1133.563786506
 21
38.686845779
 31
0.0
  0
LINE
  5
6B1
330
1F
100
AcDbEntity
  8
1
  6
SOLID
 62
     7
100
AcDbLine
 10
-1145.425964355
 20
53.842289925
 30
0.0
 11
-1145.425964355
 21
35.65575695
 31
0.0
  0
LINE
  5
6B2
330
1F
100
AcDbEntity
  8
1
  6
SOLID
 62
     7
100
AcDbLine
 10
-1144.488142014
 20
50.811201096
 30
0.0
 11
-1133.563786506
 21
50.811201096
 31
0.0
  0
ARC
  5
6B3
330
1F
100
AcDbEntity
  8
1
  6
SOLID
 62
     7
100
AcDbCircle
 10
-1137.99319087
 20
53.842289925
 30
0.0
 40
5.367226705
100
AcDbArc
 50
325.615745828
 51
34.384254172
  0
ARC
  5
6B4
330
1F
100
AcDbEntity
  8
1
  6
SOLID
 62
     7
100
AcDbCircle
 10
-1152.688137472
 20
44.749023438
 30
0.0
 40
20.062173307
100
AcDbArc
 50
342.412042639
 51
17.587957361
  0
ARC
  5
6B5
330
1F
100
AcDbEntity
  8
1
  6
SOLID
 62
     7
100
AcDbCircle
 10
-1137.99319087
 20
35.65575695
 30
0.0
 40
5.367226705
100
AcDbArc
 50
325.615745828
 51
34.384254172
  0
LINE
  5
6B6
330
1F
100
AcDbEntity
  8
1
  6
SOLID
 62
     7
100
AcDbLine
 10
-1144.488142014
 20
32.624668121
 30
0.0
 11
-1133.563786506
 21
32.624668121
 31
0.0
  0
ARC
  5
6B7
330
1F
100
AcDbEntity
  8
1
  6
SOLID
 62
     7
100
AcDbCircle
 10
-1140.058737651
 20
35.65575695
 30
0.0
 40
5.367226705
100
AcDbArc
 50
145.615745828
 51
214.384254172
  0
ARC
  5
6B8
330
1F
100
AcDbEntity
  8
1
  6
SOLID
 62
     7
100
AcDbCircle
 10
-1125.363791048
 20
44.749023438
 30
0.0
 40
20.062173307
100
AcDbArc
 50
162.412042639
 51
197.587957361
  0
ARC
  5
6B9
330
1F
100
AcDbEntity
  8
1
  6
SOLID
 62
     7
100
AcDbCircle
 10
-1140.058737651
 20
53.842289925
 30
0.0
 40
5.367226705
100
AcDbArc
 50
145.615745828
 51
214.384254172
  0
LINE
  5
6BA
330
1F
100
AcDbEntity
  8
1
  6
SOLID
 62
     7
100
AcDbLine
 10
-1133.563786506
 20
56.873378754
 30
0.0
 11
-1144.488142014
 21
56.873378754
 31
0.0
  0
LINE
  5
6BB
330
1F
100
AcDbEntity
  8
1
  6
CENTER
 62
     7
100
AcDbLine
 10
-648.188534898
 20
604.749101156
 30
0.0
 11
-648.188534898
 21
598.999101156
 31
0.0
  0
LINE
  5
6BC
330
1F
100
AcDbEntity
  8
1
  6
CENTER
 62
     7
100
AcDbLine
 10
-648.188534898
 20
604.749101156
 30
0.0
 11
-648.188534898
 21
610.499101156
 31
0.0
  0
LINE
  5
6BD
330
1F
100
AcDbEntity
  8
1
  6
CENTER
 62
     7
100
AcDbLine
 10
-648.188534898
 20
604.749101156
 30
0.0
 11
-653.938534898
 21
604.749101156
 31
0.0
  0
LINE
  5
6BE
330
1F
100
AcDbEntity
  8
1
  6
CENTER
 62
     7
100
AcDbLine
 10
-648.188534898
 20
604.749101156
 30
0.0
 11
-642.438534898
 21
604.749101156
 31
0.0
  0
CIRCLE
  5
6BF
330
1F
100
AcDbEntity
  8
1
  6
SOLID
 62
     7
100
AcDbCircle
 10
-648.188537598
 20
604.749145508
 30
0.0
 40
5.0
  0
LINE
  5
6C0
330
1F
100
AcDbEntity
  8
1
  6
SOLID
 62
     7
100
AcDbLine
 10
-645.688537598
 20
603.305769801
 30
0.0
 11
-645.688537598
 21
606.192521214
 31
0.0
  0
LINE
  5
6C1
330
1F
100
AcDbEntity
  8
1
  6
SOLID
 62
     7
100
AcDbLine
 10
-648.188537598
 20
601.862394094
 30
0.0
 11
-645.688537551
 21
603.305769821
 31
0.0
  0
LINE
  5
6C2
330
1F
100
AcDbEntity
  8
1
  6
SOLID
 62
     7
100
AcDbLine
 10
-650.688537598
 20
603.305769801
 30
0.0
 11
-648.188537551
 21
601.862394075
 31
0.0
  0
LINE
  5
6C3
330
1F
100
AcDbEntity
  8
1
  6
SOLID
 62
     7
100
AcDbLine
 10
-650.688537598
 20
606.192521214
 30
0.0
 11
-650.688537598
 21
603.305769801
 31
0.0
  0
LINE
  5
6C4
330
1F
100
AcDbEntity
  8
1
  6
SOLID
 62
     7
100
AcDbLine
 10
-648.188537598
 20
607.635896921
 30
0.0
 11
-650.688537645
 21
606.192521195
 31
0.0
  0
LINE
  5
6C5
330
1F
100
AcDbEntity
  8
1
  6
SOLID
 62
     7
100
AcDbLine
 10
-645.688537598
 20
606.192521214
 30
0.0
 11
-648.188537645
 21
607.635896941
 31
0.0
  0
LINE
  5
6C6
330
1F
100
AcDbEntity
  8
1
  6
CENTER
 62
     7
100
AcDbLine
 10
-1397.025948259
 20
44.749023438
 30
0.0
 11
-1405.345948431
 21
44.749023438
 31
0.0
  0
LINE
  5
6C7
330
1F
100
AcDbEntity
  8
1
  6
CENTER
 62
     7
100
AcDbLine
 10
-1397.025948259
 20
44.749023438
 30
0.0
 11
-1388.705948087
 21
44.749023438
 31
0.0
  0
LINE
  5
6C8
330
1F
100
AcDbEntity
  8
1
  6
SOLID
 62
     7
100
AcDbLine
 10
-1390.625933647
 20
35.65575695
 30
0.0
 11
-1390.625933647
 21
53.842289925
 31
0.0
  0
LINE
  5
6C9
330
1F
100
AcDbEntity
  8
1
  6
SOLID
 62
     7
100
AcDbLine
 10
-1402.488111496
 20
38.686845779
 30
0.0
 11
-1391.563755989
 21
38.686845779
 31
0.0
  0
LINE
  5
6CA
330
1F
100
AcDbEntity
  8
1
  6
SOLID
 62
     7
100
AcDbLine
 10
-1403.425933838
 20
53.842289925
 30
0.0
 11
-1403.425933838
 21
35.65575695
 31
0.0
  0
LINE
  5
6CB
330
1F
100
AcDbEntity
  8
1
  6
SOLID
 62
     7
100
AcDbLine
 10
-1402.488111496
 20
50.811201096
 30
0.0
 11
-1391.563755989
 21
50.811201096
 31
0.0
  0
ARC
  5
6CC
330
1F
100
AcDbEntity
  8
1
  6
SOLID
 62
     7
100
AcDbCircle
 10
-1395.993160352
 20
53.842289925
 30
0.0
 40
5.367226705
100
AcDbArc
 50
325.615745828
 51
34.384254172
  0
ARC
  5
6CD
330
1F
100
AcDbEntity
  8
1
  6
SOLID
 62
     7
100
AcDbCircle
 10
-1410.688106954
 20
44.749023438
 30
0.0
 40
20.062173307
100
AcDbArc
 50
342.412042639
 51
17.587957361
  0
ARC
  5
6CE
330
1F
100
AcDbEntity
  8
1
  6
SOLID
 62
     7
100
AcDbCircle
 10
-1395.993160352
 20
35.65575695
 30
0.0
 40
5.367226705
100
AcDbArc
 50
325.615745828
 51
34.384254172
  0
LINE
  5
6CF
330
1F
100
AcDbEntity
  8
1
  6
SOLID
 62
     7
100
AcDbLine
 10
-1402.488111496
 20
32.624668121
 30
0.0
 11
-1391.563755989
 21
32.624668121
 31
0.0
  0
ARC
  5
6D0
330
1F
100
AcDbEntity
  8
1
  6
SOLID
 62
     7
100
AcDbCircle
 10
-1398.058707133
 20
35.65575695
 30
0.0
 40
5.367226705
100
AcDbArc
 50
145.615745828
 51
214.384254172
  0
ARC
  5
6D1
330
1F
100
AcDbEntity
  8
1
  6
SOLID
 62
     7
100
AcDbCircle
 10
-1383.363760531
 20
44.749023438
 30
0.0
 40
20.062173307
100
AcDbArc
 50
162.412042639
 51
197.587957361
  0
ARC
  5
6D2
330
1F
100
AcDbEntity
  8
1
  6
SOLID
 62
     7
100
AcDbCircle
 10
-1398.058707133
 20
53.842289925
 30
0.0
 40
5.367226705
100
AcDbArc
 50
145.615745828
 51
214.384254172
  0
LINE
  5
6D3
330
1F
100
AcDbEntity
  8
1
  6
SOLID
 62
     7
100
AcDbLine
 10
-1391.563755989
 20
56.873378754
 30
0.0
 11
-1402.488111496
 21
56.873378754
 31
0.0
  0
LINE
  5
6D4
330
1F
100
AcDbEntity
  8
1
  6
SOLID
 62
     7
100
AcDbLine
 10
-1132.625964165
 20
723.842289925
 30
0.0
 11
-1132.625964165
 21
705.65575695
 31
0.0
  0
LINE
  5
6D5
330
1F
100
AcDbEntity
  8
1
  6
SOLID
 62
     7
100
AcDbLine
 10
-1144.488142014
 20
720.811201096
 30
0.0
 11
-1133.563786506
 21
720.811201096
 31
0.0
  0
LINE
  5
6D6
330
1F
100
AcDbEntity
  8
1
  6
SOLID
 62
     7
100
AcDbLine
 10
-1145.425964355
 20
705.65575695
 30
0.0
 11
-1145.425964355
 21
723.842289925
 31
0.0
  0
LINE
  5
6D7
330
1F
100
AcDbEntity
  8
1
  6
SOLID
 62
     7
100
AcDbLine
 10
-1144.488142014
 20
708.686845779
 30
0.0
 11
-1133.563786506
 21
708.686845779
 31
0.0
  0
ARC
  5
6D8
330
1F
100
AcDbEntity
  8
1
  6
SOLID
 62
     7
100
AcDbCircle
 10
-1137.99319087
 20
705.65575695
 30
0.0
 40
5.367226705
100
AcDbArc
 50
325.615745828
 51
34.384254172
  0
ARC
  5
6D9
330
1F
100
AcDbEntity
  8
1
  6
SOLID
 62
     7
100
AcDbCircle
 10
-1152.688137472
 20
714.749023438
 30
0.0
 40
20.062173307
100
AcDbArc
 50
342.412042639
 51
17.587957361
  0
ARC
  5
6DA
330
1F
100
AcDbEntity
  8
1
  6
SOLID
 62
     7
100
AcDbCircle
 10
-1137.99319087
 20
723.842289925
 30
0.0
 40
5.367226705
100
AcDbArc
 50
325.615745828
 51
34.384254172
  0
LINE
  5
6DB
330
1F
100
AcDbEntity
  8
1
  6
SOLID
 62
     7
100
AcDbLine
 10
-1144.488142014
 20
726.873378754
 30
0.0
 11
-1133.563786506
 21
726.873378754
 31
0.0
  0
ARC
  5
6DC
330
1F
100
AcDbEntity
  8
1
  6
SOLID
 62
     7
100
AcDbCircle
 10
-1140.058737651
 20
723.842289925
 30
0.0
 40
5.367226705
100
AcDbArc
 50
145.615745828
 51
214.384254172
  0
ARC
  5
6DD
330
1F
100
AcDbEntity
  8
1
  6
SOLID
 62
     7
100
AcDbCircle
 10
-1125.363791048
 20
714.749023438
 30
0.0
 40
20.062173307
100
AcDbArc
 50
162.412042639
 51
197.587957361
  0
ARC
  5
6DE
330
1F
100
AcDbEntity
  8
1
  6
SOLID
 62
     7
100
AcDbCircle
 10
-1140.058737651
 20
705.65575695
 30
0.0
 40
5.367226705
100
AcDbArc
 50
145.615745828
 51
214.384254172
  0
LINE
  5
6DF
330
1F
100
AcDbEntity
  8
1
  6
SOLID
 62
     7
100
AcDbLine
 10
-1133.563786506
 20
702.624668121
 30
0.0
 11
-1144.488142014
 21
702.624668121
 31
0.0
  0
LINE
  5
6E0
330
1F
100
AcDbEntity
  8
1
  6
CENTER
 62
     7
100
AcDbLine
 10
-1397.025948259
 20
714.749023438
 30
0.0
 11
-1405.345948431
 21
714.749023438
 31
0.0
  0
LINE
  5
6E1
330
1F
100
AcDbEntity
  8
1
  6
CENTER
 62
     7
100
AcDbLine
 10
-1397.025948259
 20
714.749023438
 30
0.0
 11
-1388.705948087
 21
714.749023438
 31
0.0
  0
LINE
  5
6E2
330
1F
100
AcDbEntity
  8
1
  6
SOLID
 62
     7
100
AcDbLine
 10
-1390.625933647
 20
723.842289925
 30
0.0
 11
-1390.625933647
 21
705.65575695
 31
0.0
  0
LINE
  5
6E3
330
1F
100
AcDbEntity
  8
1
  6
SOLID
 62
     7
100
AcDbLine
 10
-1402.488111496
 20
720.811201096
 30
0.0
 11
-1391.563755989
 21
720.811201096
 31
0.0
  0
LINE
  5
6E4
330
1F
100
AcDbEntity
  8
1
  6
SOLID
 62
     7
100
AcDbLine
 10
-1403.425933838
 20
705.65575695
 30
0.0
 11
-1403.425933838
 21
723.842289925
 31
0.0
  0
LINE
  5
6E5
330
1F
100
AcDbEntity
  8
1
  6
SOLID
 62
     7
100
AcDbLine
 10
-1402.488111496
 20
708.686845779
 30
0.0
 11
-1391.563755989
 21
708.686845779
 31
0.0
  0
ARC
  5
6E6
330
1F
100
AcDbEntity
  8
1
  6
SOLID
 62
     7
100
AcDbCircle
 10
-1395.993160352
 20
705.65575695
 30
0.0
 40
5.367226705
100
AcDbArc
 50
325.615745828
 51
34.384254172
  0
ARC
  5
6E7
330
1F
100
AcDbEntity
  8
1
  6
SOLID
 62
     7
100
AcDbCircle
 10
-1410.688106954
 20
714.749023438
 30
0.0
 40
20.062173307
100
AcDbArc
 50
342.412042639
 51
17.587957361
  0
ARC
  5
6E8
330
1F
100
AcDbEntity
  8
1
  6
SOLID
 62
     7
100
AcDbCircle
 10
-1395.993160352
 20
723.842289925
 30
0.0
 40
5.367226705
100
AcDbArc
 50
325.615745828
 51
34.384254172
  0
LINE
  5
6E9
330
1F
100
AcDbEntity
  8
1
  6
SOLID
 62
     7
100
AcDbLine
 10
-1402.488111496
 20
726.873378754
 30
0.0
 11
-1391.563755989
 21
726.873378754
 31
0.0
  0
ARC
  5
6EA
330
1F
100
AcDbEntity
  8
1
  6
SOLID
 62
     7
100
AcDbCircle
 10
-1398.058707133
 20
723.842289925
 30
0.0
 40
5.367226705
100
AcDbArc
 50
145.615745828
 51
214.384254172
  0
ARC
  5
6EB
330
1F
100
AcDbEntity
  8
1
  6
SOLID
 62
     7
100
AcDbCircle
 10
-1383.363760531
 20
714.749023438
 30
0.0
 40
20.062173307
100
AcDbArc
 50
162.412042639
 51
197.587957361
  0
ARC
  5
6EC
330
1F
100
AcDbEntity
  8
1
  6
SOLID
 62
     7
100
AcDbCircle
 10
-1398.058707133
 20
705.65575695
 30
0.0
 40
5.367226705
100
AcDbArc
 50
145.615745828
 51
214.384254172
  0
LINE
  5
6ED
330
1F
100
AcDbEntity
  8
1
  6
SOLID
 62
     7
100
AcDbLine
 10
-1391.563755989
 20
702.624668121
 30
0.0
 11
-1402.488111496
 21
702.624668121
 31
0.0
  0
LINE
  5
6EE
330
1F
100
AcDbEntity
  8
1
  6
SOLID
 62
     7
100
AcDbLine
 10
-1132.625964165
 20
485.65575695
 30
0.0
 11
-1132.625964165
 21
503.842289925
 31
0.0
  0
LINE
  5
6EF
330
1F
100
AcDbEntity
  8
1
  6
SOLID
 62
     7
100
AcDbLine
 10
-1144.488142014
 20
488.686845779
 30
0.0
 11
-1133.563786506
 21
488.686845779
 31
0.0
  0
LINE
  5
6F0
330
1F
100
AcDbEntity
  8
1
  6
SOLID
 62
     7
100
AcDbLine
 10
-1145.425964355
 20
503.842289925
 30
0.0
 11
-1145.425964355
 21
485.65575695
 31
0.0
  0
LINE
  5
6F1
330
1F
100
AcDbEntity
  8
1
  6
SOLID
 62
     7
100
AcDbLine
 10
-1144.488142014
 20
500.811201096
 30
0.0
 11
-1133.563786506
 21
500.811201096
 31
0.0
  0
ARC
  5
6F2
330
1F
100
AcDbEntity
  8
1
  6
SOLID
 62
     7
100
AcDbCircle
 10
-1137.99319087
 20
503.842289925
 30
0.0
 40
5.367226705
100
AcDbArc
 50
325.615745828
 51
34.384254172
  0
ARC
  5
6F3
330
1F
100
AcDbEntity
  8
1
  6
SOLID
 62
     7
100
AcDbCircle
 10
-1152.688137472
 20
494.749023438
 30
0.0
 40
20.062173307
100
AcDbArc
 50
342.412042639
 51
17.587957361
  0
ARC
  5
6F4
330
1F
100
AcDbEntity
  8
1
  6
SOLID
 62
     7
100
AcDbCircle
 10
-1137.99319087
 20
485.65575695
 30
0.0
 40
5.367226705
100
AcDbArc
 50
325.615745828
 51
34.384254172
  0
LINE
  5
6F5
330
1F
100
AcDbEntity
  8
1
  6
SOLID
 62
     7
100
AcDbLine
 10
-1144.488142014
 20
482.624668121
 30
0.0
 11
-1133.563786506
 21
482.624668121
 31
0.0
  0
ARC
  5
6F6
330
1F
100
AcDbEntity
  8
1
  6
SOLID
 62
     7
100
AcDbCircle
 10
-1140.058737651
 20
485.65575695
 30
0.0
 40
5.367226705
100
AcDbArc
 50
145.615745828
 51
214.384254172
  0
ARC
  5
6F7
330
1F
100
AcDbEntity
  8
1
  6
SOLID
 62
     7
100
AcDbCircle
 10
-1125.363791048
 20
494.749023438
 30
0.0
 40
20.062173307
100
AcDbArc
 50
162.412042639
 51
197.587957361
  0
ARC
  5
6F8
330
1F
100
AcDbEntity
  8
1
  6
SOLID
 62
     7
100
AcDbCircle
 10
-1140.058737651
 20
503.842289925
 30
0.0
 40
5.367226705
100
AcDbArc
 50
145.615745828
 51
214.384254172
  0
LINE
  5
6F9
330
1F
100
AcDbEntity
  8
1
  6
SOLID
 62
     7
100
AcDbLine
 10
-1133.563786506
 20
506.873378754
 30
0.0
 11
-1144.488142014
 21
506.873378754
 31
0.0
  0
LINE
  5
6FA
330
1F
100
AcDbEntity
  8
1
  6
SOLID
 62
     7
100
AcDbLine
 10
-1547.953010916
 20
599.66834105
 30
0.0
 11
-1545.046003086
 21
599.66834105
 31
0.0
  0
ARC
  5
6FB
330
1F
100
AcDbEntity
  8
1
  6
SOLID
 62
     7
100
AcDbCircle
 10
-1546.096879841
 20
600.938511647
 30
0.0
 40
2.249123365
100
AcDbArc
 50
145.615740999
 51
214.384259001
  0
LINE
  5
6FC
330
1F
100
AcDbEntity
  8
1
  6
CENTER
 62
     7
100
AcDbLine
 10
-1397.025948259
 20
494.749023438
 30
0.0
 11
-1405.345948431
 21
494.749023438
 31
0.0
  0
LINE
  5
6FD
330
1F
100
AcDbEntity
  8
1
  6
CENTER
 62
     7
100
AcDbLine
 10
-1397.025948259
 20
494.749023438
 30
0.0
 11
-1388.705948087
 21
494.749023438
 31
0.0
  0
LINE
  5
6FE
330
1F
100
AcDbEntity
  8
1
  6
SOLID
 62
     7
100
AcDbLine
 10
-1390.625933647
 20
485.65575695
 30
0.0
 11
-1390.625933647
 21
503.842289925
 31
0.0
  0
LINE
  5
6FF
330
1F
100
AcDbEntity
  8
1
  6
SOLID
 62
     7
100
AcDbLine
 10
-1402.488111496
 20
488.686845779
 30
0.0
 11
-1391.563755989
 21
488.686845779
 31
0.0
  0
LINE
  5
700
330
1F
100
AcDbEntity
  8
1
  6
SOLID
 62
     7
100
AcDbLine
 10
-1403.425933838
 20
503.842289925
 30
0.0
 11
-1403.425933838
 21
485.65575695
 31
0.0
  0
LINE
  5
701
330
1F
100
AcDbEntity
  8
1
  6
SOLID
 62
     7
100
AcDbLine
 10
-1402.488111496
 20
500.811201096
 30
0.0
 11
-1391.563755989
 21
500.811201096
 31
0.0
  0
ARC
  5
702
330
1F
100
AcDbEntity
  8
1
  6
SOLID
 62
     7
100
AcDbCircle
 10
-1395.993160352
 20
503.842289925
 30
0.0
 40
5.367226705
100
AcDbArc
 50
325.615745828
 51
34.384254172
  0
ARC
  5
703
330
1F
100
AcDbEntity
  8
1
  6
SOLID
 62
     7
100
AcDbCircle
 10
-1410.688106954
 20
494.749023438
 30
0.0
 40
20.062173307
100
AcDbArc
 50
342.412042639
 51
17.587957361
  0
ARC
  5
704
330
1F
100
AcDbEntity
  8
1
  6
SOLID
 62
     7
100
AcDbCircle
 10
-1395.993160352
 20
485.65575695
 30
0.0
 40
5.367226705
100
AcDbArc
 50
325.615745828
 51
34.384254172
  0
LINE
  5
705
330
1F
100
AcDbEntity
  8
1
  6
SOLID
 62
     7
100
AcDbLine
 10
-1402.488111496
 20
482.624668121
 30
0.0
 11
-1391.563755989
 21
482.624668121
 31
0.0
  0
ARC
  5
706
330
1F
100
AcDbEntity
  8
1
  6
SOLID
 62
     7
100
AcDbCircle
 10
-1398.058707133
 20
485.65575695
 30
0.0
 40
5.367226705
100
AcDbArc
 50
145.615745828
 51
214.384254172
  0
ARC
  5
707
330
1F
100
AcDbEntity
  8
1
  6
SOLID
 62
     7
100
AcDbCircle
 10
-1383.363760531
 20
494.749023438
 30
0.0
 40
20.062173307
100
AcDbArc
 50
162.412042639
 51
197.587957361
  0
ARC
  5
708
330
1F
100
AcDbEntity
  8
1
  6
SOLID
 62
     7
100
AcDbCircle
 10
-1398.058707133
 20
503.842289925
 30
0.0
 40
5.367226705
100
AcDbArc
 50
145.615745828
 51
214.384254172
  0
LINE
  5
709
330
1F
100
AcDbEntity
  8
1
  6
SOLID
 62
     7
100
AcDbLine
 10
-1391.563755989
 20
506.873378754
 30
0.0
 11
-1402.488111496
 21
506.873378754
 31
0.0
  0
LINE
  5
70A
330
1F
100
AcDbEntity
  8
1
  6
CENTER
 62
     7
100
AcDbLine
 10
-1516.826323047
 20
273.749152404
 30
0.0
 11
-1516.826323047
 21
286.899152499
 31
0.0
  0
ARC
  5
70B
330
1F
100
AcDbEntity
  8
1
  6
SOLID
 62
     7
100
AcDbCircle
 10
-1543.326372953
 20
206.749023438
 30
0.0
 40
3.0
100
AcDbArc
 50
90.0
 51
119.995997163
  0
LINE
  5
70C
330
1F
100
AcDbEntity
  8
1
  6
SOLID
 62
     7
100
AcDbLine
 10
-1544.826381612
 20
205.272330802
 30
0.0
 11
-1545.04638162
 21
205.272330802
 31
0.0
  0
LINE
  5
70D
330
1F
100
AcDbEntity
  8
1
  6
SOLID
 62
     7
100
AcDbLine
 10
-1545.04638162
 20
206.329763071
 30
0.0
 11
-1547.95338945
 21
206.329763071
 31
0.0
  0
LINE
  5
70E
330
1F
100
AcDbEntity
  8
1
  6
SOLID
 62
     7
100
AcDbLine
 10
-1523.226285687
 20
71.820942402
 30
0.0
 11
-1523.226285687
 21
85.677348614
 31
0.0
  0
ARC
  5
70F
330
1F
100
AcDbEntity
  8
1
  6
SOLID
 62
     7
100
AcDbCircle
 10
-1507.940822334
 20
78.749145508
 30
0.0
 40
15.285463353
100
AcDbArc
 50
162.412040055
 51
197.587959945
  0
LINE
  5
710
330
1F
100
AcDbEntity
  8
1
  6
SOLID
 62
     7
100
AcDbLine
 10
-1522.511754265
 20
83.367947578
 30
0.0
 11
-1517.226285598
 21
83.367947578
 31
0.0
  0
ARC
  5
711
330
1F
100
AcDbEntity
  8
1
  6
SOLID
 62
     7
100
AcDbCircle
 10
-1519.136970566
 20
85.677348614
 30
0.0
 40
4.089315121
100
AcDbArc
 50
145.615740999
 51
214.384259001
  0
LINE
  5
712
330
1F
100
AcDbEntity
  8
1
  6
SOLID
 62
     7
100
AcDbLine
 10
-1517.226285598
 20
87.986749649
 30
0.0
 11
-1522.511754265
 21
87.986749649
 31
0.0
  0
LINE
  5
713
330
1F
100
AcDbEntity
  8
1
  6
SOLID
 62
     7
100
AcDbLine
 10
-1516.826285592
 20
86.064145565
 30
0.0
 11
-1517.226285598
 21
86.064145565
 31
0.0
  0
LINE
  5
714
330
1F
100
AcDbEntity
  8
1
  6
SOLID
 62
     7
100
AcDbLine
 10
-1517.226285598
 20
69.511541367
 30
0.0
 11
-1517.226285598
 21
87.986749649
 31
0.0
  0
LINE
  5
715
330
1F
100
AcDbEntity
  8
1
  6
SOLID
 62
     7
100
AcDbLine
 10
-1522.511754265
 20
74.130343437
 30
0.0
 11
-1517.226285598
 21
74.130343437
 31
0.0
  0
LINE
  5
716
330
1F
100
AcDbEntity
  8
1
  6
SOLID
 62
     7
100
AcDbLine
 10
-1522.511754265
 20
69.511541367
 30
0.0
 11
-1517.226285598
 21
69.511541367
 31
0.0
  0
LINE
  5
717
330
1F
100
AcDbEntity
  8
1
  6
SOLID
 62
     7
100
AcDbLine
 10
-1517.226285598
 20
71.434145451
 30
0.0
 11
-1516.826285592
 21
71.434145451
 31
0.0
  0
ARC
  5
718
330
1F
100
AcDbEntity
  8
1
  6
SOLID
 62
     7
100
AcDbCircle
 10
-1519.136970566
 20
71.820942402
 30
0.0
 40
4.089315121
100
AcDbArc
 50
145.615740999
 51
214.384259001
  0
LINE
  5
719
330
1F
100
AcDbEntity
  8
1
  6
SOLID
 62
     7
100
AcDbLine
 10
-1486.42611621
 20
132.249023438
 30
0.0
 11
-1468.269126685
 21
132.249023438
 31
0.0
  0
LINE
  5
71A
330
1F
100
AcDbEntity
  8
1
  6
SOLID
 62
     7
100
AcDbLine
 10
-1438.426284066
 20
-2.750898844
 30
0.0
 11
-1516.826285592
 21
-2.750898844
 31
0.0
  0
LINE
  5
71B
330
1F
100
AcDbEntity
  8
1
  6
SOLID
 62
     7
100
AcDbLine
 10
-1523.226339826
 20
42.677104473
 30
0.0
 11
-1523.226339826
 21
28.820698261
 31
0.0
  0
ARC
  5
71C
330
1F
100
AcDbEntity
  8
1
  6
SOLID
 62
     7
100
AcDbCircle
 10
-1507.940876473
 20
35.748901367
 30
0.0
 40
15.285463353
100
AcDbArc
 50
162.412040055
 51
197.587959945
  0
LINE
  5
71D
330
1F
100
AcDbEntity
  8
1
  6
SOLID
 62
     7
100
AcDbLine
 10
-1522.511808404
 20
31.130099297
 30
0.0
 11
-1517.226339737
 21
31.130099297
 31
0.0
  0
ARC
  5
71E
330
1F
100
AcDbEntity
  8
1
  6
SOLID
 62
     7
100
AcDbCircle
 10
-1519.137024705
 20
28.820698261
 30
0.0
 40
4.089315121
100
AcDbArc
 50
145.615740999
 51
214.384259001
  0
LINE
  5
71F
330
1F
100
AcDbEntity
  8
1
  6
SOLID
 62
     7
100
AcDbLine
 10
-1517.226339737
 20
26.511297226
 30
0.0
 11
-1522.511808404
 21
26.511297226
 31
0.0
  0
ARC
  5
720
330
1F
100
AcDbEntity
  8
1
  6
SOLID
 62
     7
100
AcDbCircle
 10
-1519.137024705
 20
42.677104473
 30
0.0
 40
4.089315121
100
AcDbArc
 50
145.615740999
 51
214.384259001
  0
LINE
  5
721
330
1F
100
AcDbEntity
  8
1
  6
SOLID
 62
     7
100
AcDbLine
 10
-1522.511808404
 20
40.367703438
 30
0.0
 11
-1517.226339737
 21
40.367703438
 31
0.0
  0
LINE
  5
722
330
1F
100
AcDbEntity
  8
1
  6
SOLID
 62
     7
100
AcDbLine
 10
-1522.511808404
 20
44.986505508
 30
0.0
 11
-1517.226339737
 21
44.986505508
 31
0.0
  0
LINE
  5
723
330
1F
100
AcDbEntity
  8
1
  6
SOLID
 62
     7
100
AcDbLine
 10
-1420.426284066
 20
29.749023438
 30
0.0
 11
-1438.426284066
 21
29.749023438
 31
0.0
  0
LINE
  5
724
330
1F
100
AcDbEntity
  8
1
  6
SOLID
 62
     7
100
AcDbLine
 10
-1438.426284066
 20
-2.750898844
 30
0.0
 11
-1438.426284066
 21
154.749023438
 31
0.0
  0
LINE
  5
725
330
1F
100
AcDbEntity
  8
1
  6
SOLID
 62
     7
100
AcDbLine
 10
-1516.826285592
 20
-2.750898844
 30
0.0
 11
-1516.826285592
 21
154.749023438
 31
0.0
  0
LINE
  5
726
330
1F
100
AcDbEntity
  8
1
  6
SOLID
 62
     7
100
AcDbLine
 10
-1545.04638162
 20
103.168283804
 30
0.0
 11
-1545.04638162
 21
113.329648579
 31
0.0
  0
LINE
  5
727
330
1F
100
AcDbEntity
  8
1
  6
SOLID
 62
     7
100
AcDbLine
 10
-1548.34638174
 20
104.438454401
 30
0.0
 11
-1548.34638174
 21
112.059477982
 31
0.0
  0
ARC
  5
728
330
1F
100
AcDbEntity
  8
1
  6
SOLID
 62
     7
100
AcDbCircle
 10
-1539.939376714
 20
108.248966191
 30
0.0
 40
8.407005026
100
AcDbArc
 50
162.412040055
 51
197.587959945
  0
LINE
  5
729
330
1F
100
AcDbEntity
  8
1
  6
SOLID
 62
     7
100
AcDbLine
 10
-1544.826381612
 20
112.27221631
 30
0.0
 11
-1545.04638162
 21
112.27221631
 31
0.0
  0
LINE
  5
72A
330
1F
100
AcDbEntity
  8
1
  6
SOLID
 62
     7
100
AcDbLine
 10
-1547.95338945
 20
110.789307385
 30
0.0
 11
-1545.04638162
 21
110.789307385
 31
0.0
  0
LINE
  5
72B
330
1F
100
AcDbEntity
  8
1
  6
SOLID
 62
     7
100
AcDbLine
 10
-1545.04638162
 20
113.329648579
 30
0.0
 11
-1547.95338945
 21
113.329648579
 31
0.0
  0
ARC
  5
72C
330
1F
100
AcDbEntity
  8
1
  6
SOLID
 62
     7
100
AcDbCircle
 10
-1546.097258375
 20
112.059477982
 30
0.0
 40
2.249123365
100
AcDbArc
 50
145.615740999
 51
214.384259001
  0
LINE
  5
72D
330
1F
100
AcDbEntity
  8
1
  6
SOLID
 62
     7
100
AcDbLine
 10
-1545.04638162
 20
104.225716073
 30
0.0
 11
-1544.826381612
 21
104.225716073
 31
0.0
  0
LINE
  5
72E
330
1F
100
AcDbEntity
  8
1
  6
SOLID
 62
     7
100
AcDbLine
 10
-1547.95338945
 20
105.708624998
 30
0.0
 11
-1545.04638162
 21
105.708624998
 31
0.0
  0
LINE
  5
72F
330
1F
100
AcDbEntity
  8
1
  6
SOLID
 62
     7
100
AcDbLine
 10
-1547.95338945
 20
103.168283804
 30
0.0
 11
-1545.04638162
 21
103.168283804
 31
0.0
  0
ARC
  5
730
330
1F
100
AcDbEntity
  8
1
  6
SOLID
 62
     7
100
AcDbCircle
 10
-1546.097258375
 20
104.438454401
 30
0.0
 40
2.249123365
100
AcDbArc
 50
145.615740999
 51
214.384259001
  0
LINE
  5
731
330
1F
100
AcDbEntity
  8
1
  6
SOLID
 62
     7
100
AcDbLine
 10
-1516.826285592
 20
117.249023438
 30
0.0
 11
-1438.426284066
 21
117.249023438
 31
0.0
  0
LINE
  5
732
330
1F
100
AcDbEntity
  8
1
  6
SOLID
 62
     7
100
AcDbLine
 10
-1516.826285592
 20
-2.750898844
 30
0.0
 11
-1516.826285592
 21
154.749023438
 31
0.0
  0
ARC
  5
733
330
1F
100
AcDbEntity
  8
1
  6
SOLID
 62
     7
100
AcDbCircle
 10
-1518.326285592
 20
102.748966191
 30
0.0
 40
3.0
100
AcDbArc
 50
270.0
 51
300.0
  0
ARC
  5
734
330
1F
100
AcDbEntity
  8
1
  6
SOLID
 62
     7
100
AcDbCircle
 10
-1543.326372953
 20
102.749023438
 30
0.0
 40
3.0
100
AcDbArc
 50
240.004002837
 51
270.0
  0
LINE
  5
735
330
1F
100
AcDbEntity
  8
1
  6
SOLID
 62
     7
100
AcDbLine
 10
-1487.826237525
 20
118.248966191
 30
0.0
 11
-1486.826237525
 21
119.248966191
 31
0.0
  0
LINE
  5
736
330
1F
100
AcDbEntity
  8
1
  6
SOLID
 62
     7
100
AcDbLine
 10
-1518.326285592
 20
99.748966191
 30
0.0
 11
-1543.326372953
 21
99.748966191
 31
0.0
  0
LINE
  5
737
330
1F
100
AcDbEntity
  8
1
  6
CENTER
 62
     7
100
AcDbLine
 10
-1510.307328419
 20
108.248966191
 30
0.0
 11
-1553.34638174
 21
108.248966191
 31
0.0
  0
LINE
  5
738
330
1F
100
AcDbEntity
  8
1
  6
SOLID
 62
     7
100
AcDbLine
 10
-1487.826237525
 20
118.248966191
 30
0.0
 11
-1516.826285592
 21
118.248966191
 31
0.0
  0
LINE
  5
739
330
1F
100
AcDbEntity
  8
1
  6
SOLID
 62
     7
100
AcDbLine
 10
-1516.826285592
 20
100.15088998
 30
0.0
 11
-1516.826285592
 21
118.248966191
 31
0.0
  0
LINE
  5
73A
330
1F
100
AcDbEntity
  8
1
  6
SOLID
 62
     7
100
AcDbLine
 10
-1486.826237525
 20
154.749023438
 30
0.0
 11
-1486.826237525
 21
119.248966191
 31
0.0
  0
LINE
  5
73B
330
1F
100
AcDbEntity
  8
1
  6
SOLID
 62
     7
100
AcDbLine
 10
-1544.826382022
 20
100.150952462
 30
0.0
 11
-1544.826191441
 21
154.749023438
 31
0.0
  0
LINE
  5
73C
330
1F
100
AcDbEntity
  8
1
  6
SOLID
 62
     7
100
AcDbLine
 10
-1486.42611621
 20
144.749068414
 30
0.0
 11
-1486.826237525
 21
144.749068414
 31
0.0
  0
LINE
  5
73D
330
1F
100
AcDbEntity
  8
1
  6
SOLID
 62
     7
100
AcDbLine
 10
-1455.426284066
 20
141.482678465
 30
0.0
 11
-1455.426284066
 21
168.01536841
 31
0.0
  0
ARC
  5
73E
330
1F
100
AcDbEntity
  8
1
  6
SOLID
 62
     7
100
AcDbCircle
 10
-1543.325964749
 20
569.249023438
 30
0.0
 40
3.0
100
AcDbArc
 50
239.999769057
 51
270.0
  0
LINE
  5
73F
330
1F
100
AcDbEntity
  8
1
  6
SOLID
 62
     7
100
AcDbLine
 10
-1420.425948355
 20
479.749023438
 30
0.0
 11
-1438.425948355
 21
479.749023438
 31
0.0
  0
LINE
  5
740
330
1F
100
AcDbEntity
  8
1
  6
SOLID
 62
     7
100
AcDbLine
 10
-1438.425948355
 20
470.749068414
 30
0.0
 11
-1438.425948355
 21
604.749023438
 31
0.0
  0
LINE
  5
741
330
1F
100
AcDbEntity
  8
1
  6
SOLID
 62
     7
100
AcDbLine
 10
-1457.825947973
 20
470.749023438
 30
0.0
 11
-1457.825947973
 21
604.749023438
 31
0.0
  0
LINE
  5
742
330
1F
100
AcDbEntity
  8
1
  6
SOLID
 62
     7
100
AcDbLine
 10
-1523.226004115
 20
492.677104473
 30
0.0
 11
-1523.226004115
 21
478.820698261
 31
0.0
  0
ARC
  5
743
330
1F
100
AcDbEntity
  8
1
  6
SOLID
 62
     7
100
AcDbCircle
 10
-1507.940540762
 20
485.748901367
 30
0.0
 40
15.285463353
100
AcDbArc
 50
162.412040055
 51
197.587959945
  0
LINE
  5
744
330
1F
100
AcDbEntity
  8
1
  6
SOLID
 62
     7
100
AcDbLine
 10
-1522.511472693
 20
481.130099297
 30
0.0
 11
-1517.226004025
 21
481.130099297
 31
0.0
  0
ARC
  5
745
330
1F
100
AcDbEntity
  8
1
  6
SOLID
 62
     7
100
AcDbCircle
 10
-1519.136688993
 20
478.820698261
 30
0.0
 40
4.089315121
100
AcDbArc
 50
145.615740999
 51
214.384259001
  0
LINE
  5
746
330
1F
100
AcDbEntity
  8
1
  6
SOLID
 62
     7
100
AcDbLine
 10
-1517.226004025
 20
476.511297226
 30
0.0
 11
-1522.511472693
 21
476.511297226
 31
0.0
  0
ARC
  5
747
330
1F
100
AcDbEntity
  8
1
  6
SOLID
 62
     7
100
AcDbCircle
 10
-1519.136688993
 20
492.677104473
 30
0.0
 40
4.089315121
100
AcDbArc
 50
145.615740999
 51
214.384259001
  0
LINE
  5
748
330
1F
100
AcDbEntity
  8
1
  6
SOLID
 62
     7
100
AcDbLine
 10
-1522.511472693
 20
490.367703438
 30
0.0
 11
-1517.226004025
 21
490.367703438
 31
0.0
  0
LINE
  5
749
330
1F
100
AcDbEntity
  8
1
  6
SOLID
 62
     7
100
AcDbLine
 10
-1522.511472693
 20
494.986505508
 30
0.0
 11
-1517.226004025
 21
494.986505508
 31
0.0
  0
LINE
  5
74A
330
1F
100
AcDbEntity
  8
1
  6
SOLID
 62
     7
100
AcDbLine
 10
-1460.426084912
 20
470.749068414
 30
0.0
 11
-1438.425948355
 21
470.749068414
 31
0.0
  0
LINE
  5
74B
330
1F
100
AcDbEntity
  8
1
  6
SOLID
 62
     7
100
AcDbLine
 10
-1516.82594988
 20
470.749023438
 30
0.0
 11
-1516.82594988
 21
604.749023438
 31
0.0
  0
LINE
  5
74C
330
1F
100
AcDbEntity
  8
1
  6
SOLID
 62
     7
100
AcDbLine
 10
-1438.425948355
 20
470.749023438
 30
0.0
 11
-1516.82594988
 21
470.749023438
 31
0.0
  0
ARC
  5
74D
330
1F
100
AcDbEntity
  8
1
  6
SOLID
 62
     7
100
AcDbCircle
 10
-1518.325960352
 20
569.249023438
 30
0.0
 40
3.0
100
AcDbArc
 50
270.0
 51
300.000230943
  0
LINE
  5
74E
330
1F
100
AcDbEntity
  8
1
  6
SOLID
 62
     7
100
AcDbLine
 10
-1457.825947973
 20
126.259712724
 30
0.0
 11
-1457.825947973
 21
-2.750898844
 31
0.0
  0
DIMENSION
  5
75E
330
1F
100
AcDbEntity
  8
1
  6
SOLID
 62
     7
100
AcDbDimension
  2
*D22
 10
-1574.514892578
 20
424.749023438
 30
0.0
 11
-1580.014892578
 21
501.825714111
 31
0.0
 70
    32
 71
     5
 42
-1.0
  3
19
100
AcDbAlignedDimension
 13
-1553.245849609
 23
604.749023438
 33
0.0
 14
-1415.42590332
 24
424.749023438
 34
0.0
 50
90.0
100
AcDbRotatedDimension
  0
ENDSEC
  0
SECTION
  2
OBJECTS
  0
DICTIONARY
  5
C
330
0
100
AcDbDictionary
281
     1
  3
ACAD_COLOR
350
6C
  3
ACAD_GROUP
350
D
  3
ACAD_LAYOUT
350
1A
  3
ACAD_MATERIAL
350
6B
  3
ACAD_MLEADERSTYLE
350
7F3
  3
ACAD_MLINESTYLE
350
17
  3
ACAD_PLOTSETTINGS
350
19
  3
ACAD_PLOTSTYLENAME
350
E
  3
ACAD_SCALELIST
350
99
  3
ACAD_TABLESTYLE
350
92
  3
AcDbVariableDictionary
350
59
  0
DICTIONARY
  5
7F0
330
1F
100
AcDbDictionary
280
     1
281
     1
  0
DICTIONARY
  5
6C
102
{ACAD_REACTORS
330
C
102
}
330
C
100
AcDbDictionary
281
     1
  0
DICTIONARY
  5
D
102
{ACAD_REACTORS
330
C
102
}
330
C
100
AcDbDictionary
281
     1
  0
DICTIONARY
  5
1A
102
{ACAD_REACTORS
330
C
102
}
330
C
100
AcDbDictionary
281
     1
  3
Layout1
350
74
  3
Model
350
22
  0
DICTIONARY
  5
6B
102
{ACAD_REACTORS
330
C
102
}
330
C
100
AcDbDictionary
281
     1
  0
DICTIONARY
  5
7F3
102
{ACAD_REACTORS
330
C
102
}
330
C
100
AcDbDictionary
281
     1
  0
DICTIONARY
  5
17
102
{ACAD_REACTORS
330
C
102
}
330
C
100
AcDbDictionary
281
     1
  3
Standard
350
18
  0
DICTIONARY
  5
19
102
{ACAD_REACTORS
330
C
102
}
330
C
100
AcDbDictionary
281
     1
  0
ACDBDICTIONARYWDFLT
  5
E
102
{ACAD_REACTORS
330
C
102
}
330
C
100
AcDbDictionary
281
     1
  3
Normal
350
F
100
AcDbDictionaryWithDefault
340
F
  0
DICTIONARY
  5
99
102
{ACAD_REACTORS
330
C
102
}
330
C
100
AcDbDictionary
281
     1
  3
A0
350
763
  3
A1
350
764
  3
A2
350
765
  3
A3
350
766
  3
A4
350
767
  3
A5
350
768
  3
A6
350
769
  3
A7
350
76A
  3
A8
350
76B
  3
A9
350
76C
  3
B0
350
76D
  3
B1
350
76E
  3
B2
350
76F
  3
B3
350
770
  3
B4
350
771
  3
B5
350
772
  3
B6
350
773
  3
B7
350
774
  3
B8
350
775
  3
B9
350
776
  3
C0
350
777
  3
C1
350
778
  3
C2
350
779
  3
C3
350
77A
  3
C4
350
77B
  3
C5
350
77C
  3
C6
350
77D
  3
C7
350
77E
  3
C8
350
77F
  3
C9
350
780
  3
D0
350
781
  3
D1
350
782
  3
D2
350
783
  0
DICTIONARY
  5
92
102
{ACAD_REACTORS
330
C
102
}
330
C
100
AcDbDictionary
281
     1
  3
Standard
350
93
  0
DICTIONARY
  5
59
102
{ACAD_REACTORS
330
C
102
}
330
C
100
AcDbDictionary
281
     1
  3
CTABLESTYLE
350
98
  3
DIMASSOC
350
787
  3
HIDETEXT
350
5E
  0
LAYOUT
  5
74
102
{ACAD_REACTORS
330
1A
102
}
330
1A
100
AcDbPlotSettings
  1

  2
none_device
  4
ISO_C5_(229.00_x_162.00_MM)
  6

 40
0.0
 41
0.0
 42
0.0
 43
0.0
 44
229.0
 45
162.0
 46
0.0
 47
0.0
 48
0.0
 49
0.0
140
0.0
141
0.0
142
1.0
143
1.0
 70
   688
 72
     1
 73
     0
 74
     5
  7

 75
    16
 76
     0
 77
     2
 78
   300
147
1.0
148
0.0
149
0.0
100
AcDbLayout
  1
Layout1
 70
     0
 71
     1
 10
0.0
 20
0.0
 11
0.0
 21
0.0
 12
0.0
 22
0.0
 32
0.0
 14
0.0
 24
0.0
 34
0.0
 15
0.0
 25
0.0
 35
0.0
146
0.0
 13
0.0
 23
0.0
 33
0.0
 16
1.0
 26
0.0
 36
0.0
 17
0.0
 27
1.0
 37
0.0
 76
     0
330
73
  0
LAYOUT
  5
22
102
{ACAD_REACTORS
330
1A
102
}
330
1A
100
AcDbPlotSettings
  1

  2
none_device
  4
ISO_C5_(229.00_x_162.00_MM)
  6

 40
0.0
 41
0.0
 42
0.0
 43
0.0
 44
229.0
 45
162.0
 46
0.0
 47
0.0
 48
0.0
 49
0.0
140
0.0
141
0.0
142
1.0
143
1.0
 70
 11952
 72
     1
 73
     0
 74
     0
  7

 75
    16
 76
     0
 77
     2
 78
   300
147
1.0
148
0.0
149
0.0
100
AcDbLayout
  1
Model
 70
     1
 71
     0
 10
0.0
 20
0.0
 11
0.0
 21
0.0
 12
0.0
 22
0.0
 32
0.0
 14
-1621.466675934
 24
-2.750898844
 34
0.0
 15
-439.207233887
 25
912.84387207
 35
0.0
146
0.0
 13
0.0
 23
0.0
 33
0.0
 16
1.0
 26
0.0
 36
0.0
 17
0.0
 27
1.0
 37
0.0
 76
     0
330
1F
331
97
  0
MLINESTYLE
  5
18
102
{ACAD_REACTORS
330
17
102
}
330
17
100
AcDbMlineStyle
  2
STANDARD
 70
     0
  3

 62
     0
 51
90.0
 52
90.0
 71
     2
 49
0.5
 62
   256
  6
BYLAYER
 49
-0.5
 62
   256
  6
BYLAYER
  0
ACDBPLACEHOLDER
  5
F
102
{ACAD_REACTORS
330
E
102
}
330
E
  0
SCALE
  5
763
102
{ACAD_REACTORS
330
99
102
}
330
99
100
AcDbScale
 70
     0
300
1:1
140
1.0
141
1.0
290
     1
  0
SCALE
  5
764
102
{ACAD_REACTORS
330
99
102
}
330
99
100
AcDbScale
 70
     0
300
1:2
140
1.0
141
2.0
290
     1
  0
SCALE
  5
765
102
{ACAD_REACTORS
330
99
102
}
330
99
100
AcDbScale
 70
     0
300
1:4
140
1.0
141
4.0
290
     1
  0
SCALE
  5
766
102
{ACAD_REACTORS
330
99
102
}
330
99
100
AcDbScale
 70
     0
300
1:5
140
1.0
141
5.0
290
     1
  0
SCALE
  5
767
102
{ACAD_REACTORS
330
99
102
}
330
99
100
AcDbScale
 70
     0
300
1:8
140
1.0
141
8.0
290
     1
  0
SCALE
  5
768
102
{ACAD_REACTORS
330
99
102
}
330
99
100
AcDbScale
 70
     0
300
1:10
140
1.0
141
10.0
290
     1
  0
SCALE
  5
769
102
{ACAD_REACTORS
330
99
102
}
330
99
100
AcDbScale
 70
     0
300
1:16
140
1.0
141
16.0
290
     1
  0
SCALE
  5
76A
102
{ACAD_REACTORS
330
99
102
}
330
99
100
AcDbScale
 70
     0
300
1:20
140
1.0
141
20.0
290
     1
  0
SCALE
  5
76B
102
{ACAD_REACTORS
330
99
102
}
330
99
100
AcDbScale
 70
     0
300
1:30
140
1.0
141
30.0
290
     1
  0
SCALE
  5
76C
102
{ACAD_REACTORS
330
99
102
}
330
99
100
AcDbScale
 70
     0
300
1:40
140
1.0
141
40.0
290
     1
  0
SCALE
  5
76D
102
{ACAD_REACTORS
330
99
102
}
330
99
100
AcDbScale
 70
     0
300
1:50
140
1.0
141
50.0
290
     1
  0
SCALE
  5
76E
102
{ACAD_REACTORS
330
99
102
}
330
99
100
AcDbScale
 70
     0
300
1:100
140
1.0
141
100.0
290
     1
  0
SCALE
  5
76F
102
{ACAD_REACTORS
330
99
102
}
330
99
100
AcDbScale
 70
     0
300
2:1
140
2.0
141
1.0
290
     1
  0
SCALE
  5
770
102
{ACAD_REACTORS
330
99
102
}
330
99
100
AcDbScale
 70
     0
300
4:1
140
4.0
141
1.0
290
     1
  0
SCALE
  5
771
102
{ACAD_REACTORS
330
99
102
}
330
99
100
AcDbScale
 70
     0
300
8:1
140
8.0
141
1.0
290
     1
  0
SCALE
  5
772
102
{ACAD_REACTORS
330
99
102
}
330
99
100
AcDbScale
 70
     0
300
10:1
140
10.0
141
1.0
290
     1
  0
SCALE
  5
773
102
{ACAD_REACTORS
330
99
102
}
330
99
100
AcDbScale
 70
     0
300
100:1
140
100.0
141
1.0
290
     1
  0
SCALE
  5
774
102
{ACAD_REACTORS
330
99
102
}
330
99
100
AcDbScale
 70
     0
300
1/128" = 1'-0"
140
0.0078125
141
12.0
290
     1
  0
SCALE
  5
775
102
{ACAD_REACTORS
330
99
102
}
330
99
100
AcDbScale
 70
     0
300
1/64" = 1'-0"
140
0.015625
141
12.0
290
     1
  0
SCALE
  5
776
102
{ACAD_REACTORS
330
99
102
}
330
99
100
AcDbScale
 70
     0
300
1/32" = 1'-0"
140
0.03125
141
12.0
290
     1
  0
SCALE
  5
777
102
{ACAD_REACTORS
330
99
102
}
330
99
100
AcDbScale
 70
     0
300
1/16" = 1'-0"
140
0.0625
141
12.0
290
     1
  0
SCALE
  5
778
102
{ACAD_REACTORS
330
99
102
}
330
99
100
AcDbScale
 70
     0
300
3/32" = 1'-0"
140
0.09375
141
12.0
290
     1
  0
SCALE
  5
779
102
{ACAD_REACTORS
330
99
102
}
330
99
100
AcDbScale
 70
     0
300
1/8" = 1'-0"
140
0.125
141
12.0
290
     1
  0
SCALE
  5
77A
102
{ACAD_REACTORS
330
99
102
}
330
99
100
AcDbScale
 70
     0
300
3/16" = 1'-0"
140
0.1875
141
12.0
290
     1
  0
SCALE
  5
77B
102
{ACAD_REACTORS
330
99
102
}
330
99
100
AcDbScale
 70
     0
300
1/4" = 1'-0"
140
0.25
141
12.0
290
     1
  0
SCALE
  5
77C
102
{ACAD_REACTORS
330
99
102
}
330
99
100
AcDbScale
 70
     0
300
3/8" = 1'-0"
140
0.375
141
12.0
290
     1
  0
SCALE
  5
77D
102
{ACAD_REACTORS
330
99
102
}
330
99
100
AcDbScale
 70
     0
300
1/2" = 1'-0"
140
0.5
141
12.0
290
     1
  0
SCALE
  5
77E
102
{ACAD_REACTORS
330
99
102
}
330
99
100
AcDbScale
 70
     0
300
3/4" = 1'-0"
140
0.75
141
12.0
290
     1
  0
SCALE
  5
77F
102
{ACAD_REACTORS
330
99
102
}
330
99
100
AcDbScale
 70
     0
300
1" = 1'-0"
140
1.0
141
12.0
290
     1
  0
SCALE
  5
780
102
{ACAD_REACTORS
330
99
102
}
330
99
100
AcDbScale
 70
     0
300
1-1/2" = 1'-0"
140
1.5
141
12.0
290
     1
  0
SCALE
  5
781
102
{ACAD_REACTORS
330
99
102
}
330
99
100
AcDbScale
 70
     0
300
3" = 1'-0"
140
3.0
141
12.0
290
     1
  0
SCALE
  5
782
102
{ACAD_REACTORS
330
99
102
}
330
99
100
AcDbScale
 70
     0
300
6" = 1'-0"
140
6.0
141
12.0
290
     1
  0
SCALE
  5
783
102
{ACAD_REACTORS
330
99
102
}
330
99
100
AcDbScale
 70
     0
300
1'-0" = 1'-0"
140
12.0
141
12.0
290
     1
  0
TABLESTYLE
  5
93
102
{ACAD_REACTORS
330
92
102
}
102
{ACAD_XDICTIONARY
360
7F1
102
}
330
92
100
AcDbTableStyle
  3
Standard
 70
     0
 71
     0
 40
0.06
 41
0.06
280
     0
281
     0
  7
Standard
140
0.18
170
     2
 62
     0
 63
     7
283
     0
274
    -2
284
     1
 64
     0
275
    -2
285
     1
 65
     0
276
    -2
286
     1
 66
     0
277
    -2
287
     1
 67
     0
278
    -2
288
     1
 68
     0
279
    -2
289
     1
 69
     0
  7
Standard
140
0.25
170
     5
 62
     0
 63
     7
283
     0
274
    -2
284
     1
 64
     0
275
    -2
285
     1
 65
     0
276
    -2
286
     1
 66
     0
277
    -2
287
     1
 67
     0
278
    -2
288
     1
 68
     0
279
    -2
289
     1
 69
     0
  7
Standard
140
0.18
170
     5
 62
     0
 63
     7
283
     0
274
    -2
284
     1
 64
     0
275
    -2
285
     1
 65
     0
276
    -2
286
     1
 66
     0
277
    -2
287
     1
 67
     0
278
    -2
288
     1
 68
     0
279
    -2
289
     1
 69
     0
  0
DICTIONARYVAR
  5
98
102
{ACAD_REACTORS
330
59
102
}
330
59
100
DictionaryVariables
280
     0
  1
Standard
  0
DICTIONARYVAR
  5
787
102
{ACAD_REACTORS
330
59
102
}
330
59
100
DictionaryVariables
280
     0
  1
2
  0
DICTIONARYVAR
  5
5E
102
{ACAD_REACTORS
330
59
102
}
330
59
100
DictionaryVariables
280
     0
  1
1
  0
DICTIONARY
  5
7F1
330
93
100
AcDbDictionary
280
     1
281
     1
  3
ACAD_XREC_ROUNDTRIP
360
7F2
  0
XRECORD
  5
7F2
102
{ACAD_REACTORS
330
7F1
102
}
330
7F1
100
AcDbXrecord
280
     1
102
ACAD_ROUNDTRIP_PRE2007_TABLESTYLE
 90
      512
 91
        0
  1

 92
      512
 93
        0
  2

 94
      512
 95
        0
  3

  0
ENDSEC
  0
EOF
